<?xml version="1.0" standalone="no"?>
<!DOCTYPE svg PUBLIC "-//W3C//DTD SVG 1.1//EN" "http://www.w3.org/Graphics/SVG/1.1/DTD/svg11.dtd" >
<svg xmlns="http://www.w3.org/2000/svg" xmlns:xlink="http://www.w3.org/1999/xlink" version="1.1">
<metadata>
Created by FontForge 20161003 at Tue Jan 23 09:56:00 2018
 By www-data
Copyright Copr. 1999, Luc[as] de Groot &#60;www.FontFabrik.com&#62;. All rights reserved. Published by FontShop International &#60;www.fontfont.de&#62;
</metadata>
<defs>
<font id="TheSans-B2ExtraLight" horiz-adv-x="550" >
  <font-face 
    font-family="TheSans"
    font-weight="500"
    font-stretch="normal"
    units-per-em="1000"
    panose-1="0 0 0 0 0 0 0 0 0 0"
    ascent="800"
    descent="-200"
    x-height="497"
    cap-height="675"
    bbox="-55 -260 1010 850"
    underline-thickness="41"
    underline-position="-231"
    stemh="39"
    stemv="49"
    unicode-range="U+0020-FB02"
  />
<missing-glyph 
 />
    <glyph glyph-name=".notdef" 
 />
    <glyph glyph-name="space" unicode=" " horiz-adv-x="218" 
 />
    <glyph glyph-name="exclam" unicode="!" horiz-adv-x="318" 
d="M201 698l-11 -549h-42l-11 549h64zM212 36c0 -24 -19 -43 -43 -43s-43 19 -43 43s19 43 43 43s43 -19 43 -43z" />
    <glyph glyph-name="quotedbl" unicode="&#x22;" horiz-adv-x="328" 
d="M268 696l-12 -206h-38l-12 206h62zM122 696l-12 -206h-38l-12 206h62z" />
    <glyph glyph-name="numbersign" unicode="#" 
d="M514 429h-101l-20 -200h97v-36h-101l-21 -193h-44l21 193h-166l-21 -193h-44l21 193h-99v36h103l20 200h-99v36h103l20 185h44l-20 -185h166l20 185h44l-20 -185h97v-36zM369 429h-166l-20 -200h166z" />
    <glyph glyph-name="dollar" unicode="$" 
d="M447 193c0 -87 -61 -160 -170 -174v-104h-43v102c-50 0 -91 5 -129 15l8 54c33 -13 91 -23 131 -23c82 0 149 36 149 120c0 152 -299 100 -299 289c0 82 65 150 164 160v98h43v-96c43 -1 83 -6 111 -12l-8 -51c-35 11 -75 18 -113 18c-110 0 -146 -58 -146 -109
c0 -149 302 -104 302 -287z" />
    <glyph glyph-name="percent" unicode="%" horiz-adv-x="740" 
d="M690 151c0 -91 -51 -159 -143 -159c-96 0 -133 55 -133 150c0 88 51 157 143 157c96 0 133 -55 133 -148zM634 642l-493 -661l-37 25l493 661zM326 510c0 -91 -51 -159 -143 -159c-96 0 -133 55 -133 150c0 88 51 157 143 157c96 0 133 -55 133 -148zM639 144
c0 74 -25 114 -89 114c-51 0 -85 -45 -85 -109c0 -75 25 -116 90 -116c50 0 84 46 84 111zM275 503c0 74 -25 114 -89 114c-51 0 -85 -45 -85 -109c0 -75 25 -116 90 -116c50 0 84 46 84 111z" />
    <glyph glyph-name="ampersand" unicode="&#x26;" horiz-adv-x="793" 
d="M724 27l-33 -42c-51 35 -105 76 -147 112c-67 -63 -156 -105 -269 -105c-132 0 -211 79 -211 192c0 96 63 158 152 226c-79 91 -101 134 -101 186c0 74 56 138 157 138c93 0 142 -55 142 -124c0 -66 -33 -125 -129 -199c66 -73 169 -173 259 -246v-1c48 63 83 156 75 273
h55c4 -119 -31 -224 -94 -302c57 -45 106 -82 144 -108zM361 602c0 49 -28 90 -96 90c-57 0 -97 -38 -97 -94c0 -37 22 -80 89 -156c69 55 104 100 104 160zM510 125c-94 79 -201 182 -266 255c-90 -70 -126 -124 -126 -188c0 -86 66 -155 169 -155c99 0 174 42 223 88z" />
    <glyph glyph-name="quoteright" unicode="&#x2019;" horiz-adv-x="221" 
d="M116 739c53 0 76 -94 -48 -215l-25 22c60 65 60 113 45 134c-19 27 0 59 28 59z" />
    <glyph glyph-name="parenleft" unicode="(" horiz-adv-x="300" 
d="M270 -182l-38 -21c-124 197 -144 352 -144 486s28 306 145 493l36 -21c-86 -143 -130 -305 -130 -466c0 -173 41 -325 131 -471z" />
    <glyph glyph-name="parenright" unicode=")" horiz-adv-x="300" 
d="M220 290c0 -134 -28 -306 -145 -493l-36 21c86 143 130 305 130 466c0 173 -41 325 -131 471l38 21c124 -197 144 -352 144 -486z" />
    <glyph glyph-name="asterisk" unicode="*" horiz-adv-x="363" 
d="M310 539l-22 -39l-96 64l7 -115h-44l7 115l-96 -64l-21 38l104 51l-104 51l22 38l96 -63l-7 115h44l-7 -115l96 63l21 -37l-104 -51z" />
    <glyph glyph-name="plus" unicode="+" 
d="M505 275h-206v-215h-50v215h-204v45h204v214h50v-214h206v-45z" />
    <glyph glyph-name="comma" unicode="," horiz-adv-x="200" 
d="M97 79c53 0 76 -94 -48 -215l-25 22c60 65 60 113 45 134c-19 27 0 59 28 59z" />
    <glyph glyph-name="hyphen" unicode="-" horiz-adv-x="326" 
d="M276 274h-226v45h226v-45z" />
    <glyph glyph-name="period" unicode="." horiz-adv-x="200" 
d="M143 36c0 -24 -19 -43 -43 -43s-43 19 -43 43s19 43 43 43s43 -19 43 -43z" />
    <glyph glyph-name="slash" unicode="/" horiz-adv-x="413" 
d="M414 757l-350 -918h-48l350 918h48z" />
    <glyph glyph-name="zero" unicode="0" 
d="M490 333c0 -257 -115 -341 -222 -341c-140 0 -209 96 -209 337c0 228 95 329 222 329c112 0 209 -66 209 -325zM433 326c0 204 -51 288 -159 288c-88 0 -158 -78 -158 -278c0 -188 39 -299 158 -299c98 0 159 106 159 289z" />
    <glyph glyph-name="one" unicode="1" 
d="M487 0h-404v48h185v551l-174 -69l-11 49l193 71h47v-602h164v-48z" />
    <glyph glyph-name="two" unicode="2" 
d="M476 0h-411v42l188 185c120 118 143 166 143 240c0 81 -55 147 -150 147c-63 0 -123 -30 -155 -57l-20 43c48 33 109 58 179 58c130 0 201 -86 201 -184c0 -84 -28 -147 -158 -271l-162 -154v-1c38 1 117 2 226 2h119v-50z" />
    <glyph glyph-name="three" unicode="3" 
d="M463 191c0 -119 -96 -199 -256 -199c-41 0 -85 6 -119 16l8 52c34 -12 77 -21 121 -21c120 0 189 56 189 142c0 87 -69 140 -183 140c-35 0 -60 -1 -93 -4v46h16c158 0 245 45 245 139c0 70 -57 112 -137 112c-55 0 -102 -16 -147 -40l-7 50c45 19 96 34 159 34
c124 0 188 -67 188 -151c0 -80 -49 -134 -134 -157v-1c84 -5 150 -75 150 -158z" />
    <glyph glyph-name="four" unicode="4" 
d="M527 159h-124v-159h-53v159h-319l-3 40l303 451h72v-442h124v-49zM350 208v389h-1l-264 -392c74 3 217 3 265 3z" />
    <glyph glyph-name="five" unicode="5" 
d="M462 209c0 -130 -101 -217 -256 -217c-41 0 -76 4 -114 13v52c35 -12 78 -19 121 -19c126 0 194 64 194 162c0 95 -77 144 -190 144c-41 0 -84 -4 -107 -8v314h330v-52h-282v-212c22 2 52 3 70 3c156 0 234 -82 234 -180z" />
    <glyph glyph-name="six" unicode="6" 
d="M494 216c0 -131 -84 -224 -214 -224c-136 0 -215 106 -215 264c0 295 140 402 323 402c16 0 35 -1 43 -2v-48c-15 2 -29 3 -52 3c-154 0 -232 -94 -257 -255c-2 -11 -5 -33 -8 -58h1c34 68 102 106 180 106c128 0 199 -83 199 -188zM440 204c0 90 -52 155 -153 155
c-100 0 -159 -83 -159 -147c0 -95 56 -176 160 -176c97 0 152 69 152 168z" />
    <glyph glyph-name="seven" unicode="7" 
d="M491 604c-111 -202 -212 -423 -278 -604h-63c75 187 168 395 281 600c-19 -1 -171 -2 -280 -2h-90v52h430v-46z" />
    <glyph glyph-name="eight" unicode="8" 
d="M482 155c0 -95 -88 -163 -212 -163c-120 0 -203 62 -203 154c0 89 77 141 159 185c-90 42 -142 89 -142 168c0 88 76 159 195 159c117 0 186 -63 186 -153c0 -78 -67 -125 -142 -167c80 -39 159 -85 159 -183zM408 500c0 75 -58 113 -135 113c-81 0 -132 -49 -132 -110
c0 -65 41 -96 137 -143c70 38 130 77 130 140zM425 149c0 86 -74 124 -154 161c-76 -42 -147 -85 -147 -159c0 -67 55 -114 154 -114c80 0 147 39 147 112z" />
    <glyph glyph-name="nine" unicode="9" 
d="M480 394c0 -304 -145 -402 -326 -402c-23 0 -46 2 -69 6v51c24 -5 53 -9 82 -9c147 0 227 79 248 237c3 23 5 37 9 56h-1c-33 -56 -95 -91 -172 -91c-125 0 -195 82 -195 197c0 130 88 219 212 219c127 0 212 -77 212 -264zM418 439c0 100 -56 175 -156 175
c-95 0 -151 -74 -151 -165c0 -95 55 -159 148 -159c102 0 159 69 159 149z" />
    <glyph glyph-name="colon" unicode=":" horiz-adv-x="275" 
d="M198 338c0 -24 -19 -43 -43 -43s-43 19 -43 43s19 43 43 43s43 -19 43 -43zM198 36c0 -24 -19 -43 -43 -43s-43 19 -43 43s19 43 43 43s43 -19 43 -43z" />
    <glyph glyph-name="semicolon" unicode=";" horiz-adv-x="275" 
d="M198 338c0 -24 -19 -43 -43 -43s-43 19 -43 43s19 43 43 43s43 -19 43 -43zM154 79c53 0 76 -94 -48 -215l-25 22c60 65 60 113 45 134c-19 27 0 59 28 59z" />
    <glyph glyph-name="less" unicode="&#x3c;" 
d="M427 69l-33 -37l-314 272l314 273l33 -33l-279 -239z" />
    <glyph glyph-name="equal" unicode="=" 
d="M492 350h-434v46h434v-46zM492 199h-434v46h434v-46z" />
    <glyph glyph-name="greater" unicode="&#x3e;" 
d="M470 305l-314 -273l-33 33l279 239l-279 236l33 37z" />
    <glyph glyph-name="question" unicode="?" horiz-adv-x="440" 
d="M367 520c0 -164 -212 -163 -151 -371h-52c-63 207 144 228 144 365c0 72 -83 134 -208 140l7 49c153 -7 260 -88 260 -183zM233 36c0 -24 -19 -43 -43 -43s-43 19 -43 43s19 43 43 43s43 -19 43 -43z" />
    <glyph glyph-name="at" unicode="@" horiz-adv-x="986" 
d="M886 399c0 -172 -95 -270 -213 -270c-91 0 -119 64 -107 121h-3c-11 -40 -80 -121 -158 -121c-67 0 -94 48 -94 126c0 146 75 270 219 270c44 0 89 -4 122 -10l-42 -227c-14 -77 16 -112 75 -112c86 0 150 80 150 220c0 143 -88 292 -313 292c-211 0 -379 -167 -379 -396
c0 -204 122 -336 332 -336c60 0 109 7 163 23l7 -47c-54 -16 -121 -23 -176 -23c-233 0 -378 146 -378 373c0 262 202 448 435 448c245 0 360 -162 360 -331zM593 476c-19 5 -44 7 -72 7c-112 0 -157 -131 -157 -216c0 -58 18 -89 54 -89c60 0 132 80 163 237z" />
    <glyph glyph-name="A" unicode="A" horiz-adv-x="605" 
d="M587 0h-63l-64 177h-319l-65 -177h-58l257 675h57zM444 221l-112 305c-12 33 -22 62 -31 90h-1c-9 -28 -19 -57 -30 -88l-113 -307h287z" />
    <glyph glyph-name="B" unicode="B" horiz-adv-x="560" 
d="M499 196c0 -64 -33 -199 -251 -199c-40 0 -102 2 -148 3v675c41 0 91 2 171 2c144 0 206 -63 206 -157c0 -76 -48 -139 -130 -164v-1c109 -14 152 -86 152 -159zM422 511c0 70 -32 123 -161 123c-36 0 -75 -1 -107 -2v-260c23 -1 42 -1 70 -1c132 0 198 51 198 140z
M444 193c0 108 -99 136 -221 136c-13 0 -51 0 -69 -1v-281c20 -3 52 -6 101 -6c134 0 189 66 189 152z" />
    <glyph glyph-name="C" unicode="C" horiz-adv-x="600" 
d="M551 33c-53 -23 -122 -40 -196 -40c-197 0 -301 120 -301 332c0 199 91 357 323 357c54 0 113 -8 164 -23l-11 -50c-53 18 -112 29 -168 29c-180 0 -250 -141 -250 -304c0 -186 83 -294 260 -294c57 0 122 16 167 39z" />
    <glyph glyph-name="D" unicode="D" horiz-adv-x="689" 
d="M635 342c0 -232 -160 -345 -382 -345c-66 0 -111 4 -153 3v675c52 0 121 3 185 3c224 0 350 -109 350 -336zM579 339c0 199 -107 296 -302 296c-41 0 -93 -2 -123 -3v-584c32 -4 78 -7 108 -7c188 0 317 92 317 298z" />
    <glyph glyph-name="E" unicode="E" horiz-adv-x="510" 
d="M428 0h-328v675h328v-43h-274v-262h261v-43h-261v-283h274v-44z" />
    <glyph glyph-name="F" unicode="F" horiz-adv-x="472" 
d="M428 632h-274v-262h259v-43h-259v-327h-54v675h328v-43z" />
    <glyph glyph-name="G" unicode="G" horiz-adv-x="689" 
d="M595 28c-68 -24 -148 -36 -215 -36c-195 0 -330 122 -330 334c0 202 132 357 351 357c62 0 121 -10 183 -29l-14 -49c-58 23 -118 34 -177 34c-146 0 -286 -95 -286 -303c0 -193 117 -299 283 -299c57 0 105 8 151 23v274h54v-306z" />
    <glyph glyph-name="H" unicode="H" horiz-adv-x="709" 
d="M609 0h-54v329h-401v-329h-54v675h54v-302h401v302h54v-675z" />
    <glyph glyph-name="I" unicode="I" horiz-adv-x="254" 
d="M154 0h-54v675h54v-675z" />
    <glyph glyph-name="J" unicode="J" horiz-adv-x="324" 
d="M224 164c0 -114 -46 -170 -156 -170c-22 0 -48 4 -67 8v51c21 -7 51 -13 76 -13c60 0 93 24 93 130v505h54v-511z" />
    <glyph glyph-name="K" unicode="K" horiz-adv-x="572" 
d="M550 0h-79l-317 345v-345h-54v675h54v-330l317 330h69l-322 -327z" />
    <glyph glyph-name="L" unicode="L" horiz-adv-x="424" 
d="M418 0h-318v675h54v-631h264v-44z" />
    <glyph glyph-name="M" unicode="M" horiz-adv-x="897" 
d="M832 0h-58l-65 455c-12 83 -18 139 -21 172h-2c-6 -22 -16 -56 -31 -100l-180 -527h-69l-170 495c-18 51 -31 94 -42 132h-1c-3 -51 -9 -106 -18 -178l-53 -449h-57l93 675h74l171 -501c11 -32 27 -82 39 -127h1c13 44 23 77 37 118l175 510h79z" />
    <glyph glyph-name="N" unicode="N" horiz-adv-x="716" 
d="M616 0h-74l-315 492c-31 48 -57 91 -80 135c3 -84 7 -302 7 -434v-193h-54v675h74l312 -486c29 -45 57 -92 83 -138c-3 99 -7 310 -7 449v175h54v-675z" />
    <glyph glyph-name="O" unicode="O" horiz-adv-x="706" 
d="M656 344c0 -227 -141 -352 -311 -352c-199 0 -295 137 -295 339c0 228 141 352 311 352c185 0 295 -127 295 -339zM598 332c0 194 -92 306 -245 306c-131 0 -245 -107 -245 -294c0 -180 81 -306 245 -306c130 0 245 107 245 294z" />
    <glyph glyph-name="P" unicode="P" horiz-adv-x="517" 
d="M476 492c0 -132 -116 -217 -257 -217c-23 0 -45 1 -65 3v-278h-54v675c45 2 95 3 150 3c146 0 226 -78 226 -186zM419 481c0 100 -60 152 -182 152c-34 0 -59 0 -83 -2v-306c21 -3 46 -5 71 -5c122 1 194 65 194 161z" />
    <glyph glyph-name="Q" unicode="Q" horiz-adv-x="705" 
d="M656 344c0 -227 -141 -352 -311 -352c-199 0 -295 137 -295 339c0 228 141 352 311 352c185 0 295 -127 295 -339zM705 -168c-162 -21 -237 56 -367 37v50c148 19 220 -55 367 -37v-50zM598 332c0 194 -92 306 -245 306c-131 0 -245 -107 -245 -294
c0 -180 81 -306 245 -306c130 0 245 107 245 294z" />
    <glyph glyph-name="R" unicode="R" horiz-adv-x="540" 
d="M500 0h-73l-260 325h-13v-325h-54v675c39 2 75 3 144 3c118 0 214 -41 214 -162c0 -128 -110 -192 -229 -192c20 -22 44 -48 62 -69zM402 505c0 98 -64 130 -176 130c-28 0 -49 -1 -72 -3v-263c12 -1 34 -2 68 -2c115 0 180 58 180 138z" />
    <glyph glyph-name="S" unicode="S" horiz-adv-x="504" 
d="M443 189c0 -116 -92 -197 -239 -197c-51 0 -102 8 -141 20l10 53c42 -16 90 -25 136 -25c95 0 179 38 179 142c0 173 -327 112 -327 321c0 102 77 180 218 180c41 0 85 -5 121 -13l-8 -50c-36 11 -78 18 -117 18c-108 0 -160 -51 -160 -129c0 -170 328 -109 328 -320z
" />
    <glyph glyph-name="T" unicode="T" horiz-adv-x="522" 
d="M502 631h-214v-631h-54v631h-214v44h482v-44z" />
    <glyph glyph-name="U" unicode="U" horiz-adv-x="704" 
d="M604 254c0 -169 -86 -262 -260 -262c-208 0 -244 118 -244 228v455h54v-448c0 -102 35 -191 195 -191c134 0 202 56 202 212v427h53v-421z" />
    <glyph glyph-name="V" unicode="V" horiz-adv-x="607" 
d="M587 675l-260 -675h-57l-252 675h63l170 -472c15 -41 34 -96 49 -145h1c14 47 33 100 52 150l177 467h57z" />
    <glyph glyph-name="W" unicode="W" horiz-adv-x="953" 
d="M909 675l-183 -675h-69l-157 534c-10 35 -19 67 -25 95h-1c-6 -31 -14 -63 -24 -97l-152 -532h-70l-184 675h58l135 -505c12 -46 21 -82 29 -123h1c8 40 17 80 28 117l146 511h71l154 -520c10 -34 20 -73 27 -108h1c6 32 13 60 21 91l141 537h53z" />
    <glyph glyph-name="X" unicode="X" horiz-adv-x="570" 
d="M546 0h-67l-198 309l-196 -309h-61l228 350l-214 325h63l181 -281l179 281h61l-210 -319z" />
    <glyph glyph-name="Y" unicode="Y" horiz-adv-x="513" 
d="M497 675l-216 -428v-247h-54v247l-211 428h60l125 -260c20 -41 38 -82 55 -123h1c17 43 39 89 61 133l122 250h57z" />
    <glyph glyph-name="Z" unicode="Z" horiz-adv-x="541" 
d="M496 0h-449v37l322 494c23 35 43 65 67 98c-41 -1 -100 -2 -173 -2h-204v48h434v-37l-339 -520c-16 -25 -31 -47 -48 -72c25 3 98 3 190 3h200v-49z" />
    <glyph glyph-name="bracketleft" unicode="[" horiz-adv-x="316" 
d="M276 -193h-176v959h176v-39h-127v-880h127v-40z" />
    <glyph glyph-name="backslash" unicode="\" horiz-adv-x="405" 
d="M414 -161h-48l-350 918h48z" />
    <glyph glyph-name="bracketright" unicode="]" horiz-adv-x="316" 
d="M216 -193h-176v40h127v880h-127v39h176v-959z" />
    <glyph glyph-name="asciicircum" unicode="^" 
d="M461 371l-42 -22l-157 282l-150 -282l-39 21l167 305h47z" />
    <glyph glyph-name="underscore" unicode="_" 
d="M550 -252h-550v41h550v-41z" />
    <glyph glyph-name="quoteleft" unicode="&#x2018;" horiz-adv-x="221" 
d="M176 722c-60 -65 -60 -113 -45 -134c19 -27 0 -59 -28 -59c-53 0 -76 94 48 215z" />
    <glyph glyph-name="a" unicode="a" horiz-adv-x="518" 
d="M419 0h-55c0 42 1 83 6 113l-2 1c-24 -67 -90 -122 -179 -122c-75 0 -134 47 -134 127c0 96 104 168 309 168v41c0 85 -29 133 -121 133c-48 0 -108 -16 -148 -39l-15 46c47 21 108 37 171 37c130 0 166 -69 166 -158v-189c0 -53 1 -112 2 -158zM364 232v12
c-197 0 -254 -57 -254 -115c0 -53 36 -92 91 -92c98 0 163 99 163 195z" />
    <glyph glyph-name="b" unicode="b" horiz-adv-x="558" 
d="M508 270c0 -181 -101 -275 -251 -275c-65 0 -108 5 -157 17v718h53v-268c0 -27 -3 -64 -9 -89l2 -1c29 84 97 133 178 133c116 0 184 -78 184 -235zM452 266c0 121 -42 196 -134 196c-113 0 -165 -132 -165 -222v-188c33 -11 68 -15 110 -15c115 0 189 68 189 229z" />
    <glyph glyph-name="c" unicode="c" horiz-adv-x="446" 
d="M416 24c-44 -19 -102 -30 -157 -30c-100 0 -211 41 -211 237c0 166 82 272 230 272c52 0 99 -9 135 -24l-13 -44c-35 14 -84 26 -133 26c-104 0 -163 -92 -163 -217c0 -110 32 -205 166 -205c49 0 95 10 134 28z" />
    <glyph glyph-name="d" unicode="d" horiz-adv-x="556" 
d="M456 0h-56c0 33 3 87 10 119l-2 1c-28 -78 -95 -128 -176 -128c-124 0 -184 89 -184 235c0 181 101 275 251 275c33 0 65 -2 104 -6v234h53v-730zM403 257v190c-38 9 -75 13 -110 13c-115 0 -189 -68 -189 -229c0 -121 42 -196 134 -196c113 0 165 132 165 222z" />
    <glyph glyph-name="e" unicode="e" horiz-adv-x="501" 
d="M448 308c0 -6 0 -16 -1 -33h-342c-7 -168 57 -236 176 -236c49 0 99 10 140 29l12 -46c-46 -19 -102 -30 -164 -30c-144 0 -221 81 -221 255c0 148 79 258 212 258c134 0 188 -93 188 -197zM390 318c2 87 -49 146 -134 146c-77 0 -133 -56 -147 -146h281z" />
    <glyph glyph-name="f" unicode="f" horiz-adv-x="345" 
d="M389 725l-6 -46c-27 8 -56 12 -84 12c-85 0 -122 -51 -122 -159v-35h159v-42h-159v-455h-53v455h-118v42h118v33c0 140 71 204 183 204c29 0 55 -3 82 -9z" />
    <glyph glyph-name="g" unicode="g" horiz-adv-x="536" 
d="M504 -80c0 -104 -106 -180 -253 -180c-123 0 -205 55 -205 149c0 65 41 113 90 142c-31 12 -50 40 -50 72s19 61 52 79c-46 28 -73 73 -73 139c0 98 75 184 203 184c23 0 37 -3 60 -8h169v-42h-97c34 -26 55 -69 55 -120c0 -99 -67 -182 -206 -182c-26 0 -46 3 -67 10
c-27 -12 -41 -32 -41 -52c0 -32 31 -44 94 -46l104 -4c108 -4 165 -58 165 -141zM399 328c0 83 -49 134 -135 134c-91 0 -143 -59 -143 -135c0 -84 50 -131 138 -131c86 0 140 48 140 132zM448 -87c0 60 -40 95 -124 98l-107 4c-11 0 -25 0 -35 1c-49 -32 -81 -72 -81 -119
c0 -72 70 -112 160 -112c120 0 187 54 187 128z" />
    <glyph glyph-name="h" unicode="h" horiz-adv-x="580" 
d="M480 0h-53v323c0 88 -24 139 -107 139c-99 0 -167 -94 -167 -225v-237h-53v730h53v-257c0 -34 -2 -74 -8 -98l2 -1c29 80 94 131 183 131c115 0 150 -71 150 -160v-345z" />
    <glyph glyph-name="i" unicode="i" horiz-adv-x="253" 
d="M167 660c0 -22 -18 -40 -40 -40s-40 17 -40 40c0 22 18 40 40 40s40 -17 40 -40zM153 0h-53v497h53v-497z" />
    <glyph glyph-name="j" unicode="j" horiz-adv-x="262" 
d="M176 660c0 -22 -18 -40 -40 -40s-40 17 -40 40c0 22 18 40 40 40s40 -17 40 -40zM162 -73c0 -132 -35 -187 -151 -187c-21 0 -47 3 -66 9l7 49c19 -7 42 -12 66 -12c73 0 91 29 91 139v572h53v-570z" />
    <glyph glyph-name="k" unicode="k" horiz-adv-x="465" 
d="M438 0h-72l-213 267v-267h-53v730h53v-462l204 229h64l-207 -226z" />
    <glyph glyph-name="l" unicode="l" horiz-adv-x="253" 
d="M153 0h-53v730h53v-730z" />
    <glyph glyph-name="m" unicode="m" horiz-adv-x="891" 
d="M100 0v497h55c0 -37 -3 -88 -9 -120l2 -1c28 78 95 129 180 129c123 0 141 -93 139 -127c17 47 70 127 178 127c92 0 146 -48 146 -160v-345h-53v323c0 84 -20 139 -102 139c-85 0 -164 -84 -164 -227v-235h-53v324c0 75 -15 138 -102 138c-92 0 -164 -93 -164 -227v-235
h-53z" />
    <glyph glyph-name="n" unicode="n" horiz-adv-x="580" 
d="M480 0h-53v323c0 88 -24 139 -107 139c-99 0 -167 -94 -167 -225v-237h-53v497h55c0 -37 -3 -88 -9 -120l2 -1c28 78 93 129 182 129c115 0 150 -71 150 -160v-345z" />
    <glyph glyph-name="o" unicode="o" horiz-adv-x="538" 
d="M490 256c0 -144 -85 -264 -231 -264c-130 0 -213 83 -213 256c0 137 81 257 230 257c112 0 214 -62 214 -249zM435 253c0 130 -57 209 -166 209c-86 0 -168 -65 -168 -210c0 -137 62 -216 169 -216c85 0 165 64 165 217z" />
    <glyph glyph-name="p" unicode="p" horiz-adv-x="558" 
d="M508 270c0 -181 -101 -275 -251 -275c-38 0 -66 1 -104 7v-254h-53v749h56c0 -33 -3 -88 -10 -119l2 -1c28 78 95 128 176 128c116 0 184 -78 184 -235zM452 266c0 121 -42 196 -134 196c-113 0 -165 -132 -165 -222v-188c33 -11 68 -15 110 -15c115 0 189 68 189 229z
" />
    <glyph glyph-name="q" unicode="q" horiz-adv-x="558" 
d="M458 -252h-53v290c0 18 1 53 7 81l-2 1c-28 -78 -95 -128 -176 -128c-116 0 -184 78 -184 235c0 181 100 276 254 276c49 0 105 -5 154 -13v-742zM405 257v191c-38 9 -75 13 -110 13c-115 0 -189 -69 -189 -230c0 -121 42 -196 134 -196c112 0 165 132 165 222z" />
    <glyph glyph-name="r" unicode="r" horiz-adv-x="354" 
d="M327 504l-2 -52c-117 18 -172 -76 -172 -255v-197h-53v497h55c0 -36 -4 -89 -13 -135l2 -1c18 76 71 157 183 143z" />
    <glyph glyph-name="s" unicode="s" horiz-adv-x="433" 
d="M373 145c0 -83 -74 -153 -201 -153c-38 0 -81 4 -111 13l9 53c32 -12 76 -19 114 -19c78 0 135 37 135 97c0 135 -260 49 -260 229c0 81 65 140 185 140c32 0 71 -5 101 -12l-8 -47c-31 10 -67 16 -102 16c-82 0 -122 -35 -122 -90c0 -136 260 -52 260 -227z" />
    <glyph glyph-name="t" unicode="t" horiz-adv-x="368" 
d="M332 3c-26 -6 -62 -10 -92 -10c-95 0 -122 45 -122 143v319h-118v42h118v170l53 15v-185h157v-42h-157v-289c0 -100 17 -125 82 -125c26 0 51 4 71 9z" />
    <glyph glyph-name="u" unicode="u" horiz-adv-x="580" 
d="M480 0h-55c0 37 3 88 9 120l-2 1c-28 -78 -93 -129 -182 -129c-115 0 -150 71 -150 160v345h53v-323c0 -88 24 -139 107 -139c99 0 167 94 167 225v237h53v-497z" />
    <glyph glyph-name="v" unicode="v" horiz-adv-x="466" 
d="M453 497l-194 -497h-56l-190 497h62l131 -366c10 -29 18 -52 26 -79h1c8 25 17 51 26 76l135 369h59z" />
    <glyph glyph-name="w" unicode="w" horiz-adv-x="790" 
d="M768 497l-165 -497h-65l-125 363c-10 29 -19 59 -27 88h-1c-11 -42 -24 -83 -37 -125l-103 -326h-68l-155 497h61l98 -340c12 -43 25 -84 32 -111h1c9 34 21 74 33 112l109 339h69l111 -339c21 -65 28 -87 35 -113h1c9 33 19 61 34 112l103 340h59z" />
    <glyph glyph-name="x" unicode="x" horiz-adv-x="509" 
d="M479 0h-73l-154 214l-154 -214h-68l194 248l-185 249h69l148 -209l152 209h63l-187 -245z" />
    <glyph glyph-name="y" unicode="y" horiz-adv-x="458" 
d="M445 497l-209 -552c-56 -149 -111 -205 -220 -205c-15 0 -33 2 -47 5l6 50c14 -4 39 -7 56 -7c62 0 104 31 150 148l25 64l-193 497h63l119 -324c17 -47 27 -77 38 -111h1c8 27 29 87 51 149l101 286h59z" />
    <glyph glyph-name="z" unicode="z" horiz-adv-x="444" 
d="M389 0h-339v37l276 415c-37 -1 -96 -2 -156 -2h-115v47h329v-36l-274 -414c33 1 105 2 157 2h122v-49z" />
    <glyph glyph-name="braceleft" unicode="{" horiz-adv-x="321" 
d="M288 -193h-15c-98 0 -131 62 -131 168v214c0 74 -24 103 -111 108v46c90 5 111 30 111 108v147c0 84 27 168 131 168h15v-39c-73 0 -97 -34 -97 -125v-146c0 -72 -28 -122 -94 -135v-1c65 -10 94 -64 94 -136v-213c0 -91 24 -124 97 -124v-40z" />
    <glyph glyph-name="bar" unicode="|" horiz-adv-x="282" 
d="M162 -252h-42v1000h42v-1000z" />
    <glyph glyph-name="braceright" unicode="}" horiz-adv-x="316" 
d="M298 297c-87 -5 -111 -34 -111 -108v-214c0 -106 -33 -168 -131 -168h-15v40c73 0 97 33 97 124v213c0 72 29 126 94 136v1c-67 9 -94 63 -94 130v151c0 91 -24 125 -97 125v39h15c104 0 131 -84 131 -168v-142c0 -83 21 -108 111 -113v-46z" />
    <glyph glyph-name="asciitilde" unicode="~" 
d="M486 563c0 -78 -45 -134 -117 -134c-108 0 -107 116 -190 116c-50 0 -72 -43 -73 -97h-40v2c0 78 45 134 117 134c108 0 107 -116 190 -116c50 0 72 43 73 97h40v-2z" />
    <glyph glyph-name="exclamdown" unicode="&#xa1;" horiz-adv-x="318" 
d="M192 461c0 -24 -19 -43 -43 -43s-43 19 -43 43s19 43 43 43s43 -19 43 -43zM181 -201h-64l11 549h42z" />
    <glyph glyph-name="cent" unicode="&#xa2;" 
d="M465 143c-41 -20 -84 -32 -132 -36v-107h-45v107c-127 5 -203 77 -203 224c0 129 78 210 203 226v93h45v-91c39 -1 83 -9 124 -26l-9 -47c-37 17 -81 29 -127 29c-112 0 -181 -61 -181 -182c0 -102 43 -180 177 -180c48 0 98 13 134 34z" />
    <glyph glyph-name="sterling" unicode="&#xa3;" 
d="M471 0h-393v38c68 61 107 109 107 170c0 29 -4 60 -9 92h-116v42h109c-8 44 -15 90 -15 134c0 128 68 182 175 182c33 0 81 -6 116 -18l-13 -46c-34 12 -75 21 -110 21c-77 0 -115 -47 -115 -130c0 -47 9 -96 17 -143h167v-42h-161c5 -30 8 -58 8 -86
c0 -69 -31 -115 -93 -168c22 1 53 2 87 2h239v-48z" />
    <glyph glyph-name="fraction" unicode="&#x2044;" horiz-adv-x="402" 
d="M472 669l-467 -689l-37 26l467 689z" />
    <glyph glyph-name="yen" unicode="&#xa5;" 
d="M504 650l-191 -377h161v-41h-174v-81h174v-41h-174v-110h-54v110h-174v41h174v81h-174v41h161l-186 377h60l113 -235c22 -45 38 -85 54 -127h1c18 47 39 93 61 137l111 225h57z" />
    <glyph glyph-name="florin" unicode="&#x192;" 
d="M515 686l-11 -45c-31 10 -65 16 -92 16c-71 0 -106 -41 -115 -132l-18 -183h157v-42h-161l-26 -275c-12 -130 -76 -184 -183 -184c-28 0 -60 5 -90 14l11 45c31 -10 65 -16 92 -16c71 0 106 41 115 131l27 285h-116v42h120l18 174c13 130 75 184 182 184
c28 0 60 -5 90 -14z" />
    <glyph glyph-name="section" unicode="&#xa7;" horiz-adv-x="510" 
d="M410 223c0 -52 -26 -98 -80 -138c24 -33 40 -66 40 -104c0 -77 -56 -143 -154 -143c-21 0 -48 3 -75 11l6 46c32 -10 50 -13 74 -13c59 0 95 38 95 92c0 120 -231 222 -231 378c0 52 26 97 80 139c-24 33 -40 67 -40 104c0 77 52 139 150 139c21 0 48 -3 69 -9l-6 -46
c-26 8 -44 11 -68 11c-59 0 -91 -34 -91 -88c0 -120 231 -223 231 -379zM356 216c0 87 -94 161 -163 240c-39 -27 -54 -64 -54 -97c0 -87 95 -161 164 -239c38 26 53 63 53 96z" />
    <glyph glyph-name="currency" unicode="&#xa4;" 
d="M488 101l-35 -29l-84 113c-29 -21 -64 -31 -101 -31c-32 0 -59 6 -81 17l-74 -99l-36 28l77 94c-28 30 -45 75 -45 137c0 53 18 97 50 128l-82 100l35 28l77 -105c26 16 58 23 91 23c30 0 65 -5 95 -23l80 105l33 -28l-84 -104c22 -25 37 -65 37 -121
c0 -50 -16 -93 -43 -123zM390 334c0 71 -31 129 -119 129c-64 0 -111 -52 -111 -131c0 -74 29 -136 118 -136c60 0 112 55 112 138z" />
    <glyph glyph-name="quotesingle" unicode="'" horiz-adv-x="182" 
d="M122 696l-12 -206h-38l-12 206h62z" />
    <glyph glyph-name="quotedblleft" unicode="&#x201c;" horiz-adv-x="383" 
d="M338 722c-60 -65 -60 -113 -45 -134c19 -27 0 -59 -28 -59c-53 0 -76 94 48 215zM176 722c-60 -65 -60 -113 -45 -134c19 -27 0 -59 -28 -59c-53 0 -76 94 48 215z" />
    <glyph glyph-name="guillemotleft" unicode="&#xab;" horiz-adv-x="485" 
d="M398 155l-38 -26l-126 165l127 168l37 -25l-107 -142zM222 155l-38 -26l-118 165l119 168l37 -25l-99 -142z" />
    <glyph glyph-name="guilsinglleft" unicode="&#x2039;" horiz-adv-x="314" 
d="M226 157l-37 -28l-123 165l124 168l36 -27l-104 -140z" />
    <glyph glyph-name="guilsinglright" unicode="&#x203a;" horiz-adv-x="314" 
d="M248 297l-125 -168l-36 27l105 140l-103 138l37 28z" />
    <glyph glyph-name="fi" unicode="&#xfb01;" horiz-adv-x="585" 
d="M485 0h-53v455h-255v-455h-53v455h-118v42h118v26c0 133 70 211 218 211c43 0 90 -8 126 -18l-12 -45c-37 12 -85 20 -120 20c-112 0 -159 -59 -159 -157v-37h308v-497z" />
    <glyph glyph-name="fl" unicode="&#xfb02;" horiz-adv-x="585" 
d="M485 0h-53v683c-35 6 -69 9 -102 9c-106 0 -153 -41 -153 -139v-56h159v-42h-159v-455h-53v455h-118v42h118v66c0 109 70 171 212 171c50 0 103 -5 149 -12v-722z" />
    <glyph glyph-name="endash" unicode="&#x2013;" 
d="M550 275h-550v45h550v-45z" />
    <glyph glyph-name="dagger" unicode="&#x2020;" horiz-adv-x="440" 
d="M385 580h-145l12 -107l-14 -247h-36l-14 247l12 107h-145v42h145l-12 138h64l-12 -138h145v-42z" />
    <glyph glyph-name="daggerdbl" unicode="&#x2021;" horiz-adv-x="440" 
d="M385 304h-145l12 -138h-64l12 138h-145v42h145l-12 117l12 117h-145v42h145l-12 138h64l-12 -138h145v-42h-145l12 -117l-12 -117h145v-42z" />
    <glyph glyph-name="periodcentered" unicode="&#xb7;" horiz-adv-x="200" 
d="M146 297c0 -26 -20 -46 -46 -46s-46 20 -46 46s20 46 46 46s46 -20 46 -46z" />
    <glyph glyph-name="paragraph" unicode="&#xb6;" horiz-adv-x="558" 
d="M488 636h-76v-732h-130v39h76v732h130v-39zM285 264c-140 -1 -208 94 -208 208c0 112 82 203 208 203v-411z" />
    <glyph glyph-name="bullet" unicode="&#x2022;" horiz-adv-x="418" 
d="M303 297c0 -52 -42 -94 -94 -94s-94 42 -94 94s42 94 94 94s94 -42 94 -94z" />
    <glyph glyph-name="quotesinglbase" unicode="&#x201a;" horiz-adv-x="221" 
d="M116 79c53 0 76 -94 -48 -215l-25 22c60 65 60 113 45 134c-19 27 0 59 28 59z" />
    <glyph glyph-name="quotedblbase" unicode="&#x201e;" horiz-adv-x="383" 
d="M278 79c53 0 76 -94 -48 -215l-25 22c60 65 60 113 45 134c-19 27 0 59 28 59zM116 79c53 0 76 -94 -48 -215l-25 22c60 65 60 113 45 134c-19 27 0 59 28 59z" />
    <glyph glyph-name="quotedblright" unicode="&#x201d;" horiz-adv-x="383" 
d="M278 739c53 0 76 -94 -48 -215l-25 22c60 65 60 113 45 134c-19 27 0 59 28 59zM116 739c53 0 76 -94 -48 -215l-25 22c60 65 60 113 45 134c-19 27 0 59 28 59z" />
    <glyph glyph-name="guillemotright" unicode="&#xbb;" horiz-adv-x="485" 
d="M419 297l-120 -168l-37 25l100 142l-98 140l38 26zM251 297l-128 -168l-37 25l108 142l-106 140l38 26z" />
    <glyph glyph-name="ellipsis" unicode="&#x2026;" horiz-adv-x="608" 
d="M537 36c0 -24 -19 -43 -43 -43s-43 19 -43 43s19 43 43 43s43 -19 43 -43zM340 36c0 -24 -19 -43 -43 -43s-43 19 -43 43s19 43 43 43s43 -19 43 -43zM143 36c0 -24 -19 -43 -43 -43s-43 19 -43 43s19 43 43 43s43 -19 43 -43z" />
    <glyph glyph-name="perthousand" unicode="&#x2030;" horiz-adv-x="1000" 
d="M885 141c0 68 -21 106 -78 106c-51 0 -80 -43 -80 -107c0 -69 21 -107 78 -107c51 0 80 43 80 108zM935 148c0 -100 -60 -156 -134 -156c-73 0 -124 38 -124 141c0 99 61 155 134 155s124 -38 124 -140zM575 141c0 68 -21 106 -78 106c-51 0 -80 -43 -80 -107
c0 -69 21 -107 78 -107c51 0 80 43 80 108zM625 148c0 -100 -60 -156 -134 -156c-73 0 -124 38 -124 141c0 99 61 155 134 155s124 -38 124 -140zM625 635l-536 -648l-35 27l535 649zM262 511c0 68 -21 106 -78 106c-51 0 -80 -43 -80 -107c0 -69 21 -107 78 -107
c51 0 80 43 80 108zM312 518c0 -100 -60 -156 -134 -156c-73 0 -124 38 -124 141c0 99 61 155 134 155s124 -38 124 -140z" />
    <glyph glyph-name="questiondown" unicode="&#xbf;" horiz-adv-x="440" 
d="M293 461c0 -24 -19 -43 -43 -43s-43 19 -43 43s19 43 43 43s43 -19 43 -43zM340 -157l-7 -49c-153 7 -260 88 -260 183c0 164 212 163 151 371h52c63 -207 -144 -228 -144 -365c0 -72 83 -134 208 -140z" />
    <glyph glyph-name="grave" unicode="`" horiz-adv-x="365" 
d="M255 608l-30 -27l-120 119l39 34z" />
    <glyph glyph-name="acute" unicode="&#xb4;" horiz-adv-x="384" 
d="M255 700l-120 -119l-30 27l111 126z" />
    <glyph glyph-name="circumflex" unicode="&#x2c6;" horiz-adv-x="440" 
d="M342 609l-30 -28l-96 88l-96 -88l-28 26l126 127z" />
    <glyph glyph-name="tilde" unicode="&#x2dc;" horiz-adv-x="524" 
d="M417 675c-23 -42 -57 -66 -97 -66c-64 0 -86 58 -131 58c-22 0 -45 -16 -64 -48l-29 24c23 42 57 66 97 66c64 0 86 -58 131 -58c22 0 45 16 64 48z" />
    <glyph glyph-name="macron" unicode="&#xaf;" horiz-adv-x="395" 
d="M315 633h-235v42h235v-42z" />
    <glyph glyph-name="breve" unicode="&#x2d8;" horiz-adv-x="427" 
d="M327 715c0 -61 -36 -116 -115 -116s-112 56 -112 116h40c0 -38 25 -73 73 -73c45 0 73 28 73 73h41z" />
    <glyph glyph-name="dotaccent" unicode="&#x2d9;" horiz-adv-x="280" 
d="M180 660c0 -22 -18 -40 -40 -40s-40 17 -40 40c0 22 18 40 40 40s40 -17 40 -40z" />
    <glyph glyph-name="dieresis" unicode="&#xa8;" horiz-adv-x="546" 
d="M395 660c0 -22 -17 -39 -39 -39s-39 17 -39 39s17 39 39 39s39 -17 39 -39zM213 660c0 -22 -17 -39 -39 -39s-39 17 -39 39s17 39 39 39s39 -17 39 -39z" />
    <glyph glyph-name="ring" unicode="&#x2da;" horiz-adv-x="400" 
d="M300 658c0 -52 -45 -98 -100 -98c-56 0 -100 41 -100 98c0 55 46 98 100 98c57 0 100 -43 100 -98zM258 658c0 33 -25 60 -58 60s-58 -27 -58 -60s25 -60 58 -60s58 27 58 60z" />
    <glyph glyph-name="cedilla" unicode="&#xb8;" horiz-adv-x="400" 
d="M261 -41c50 -63 34 -123 -23 -195h-50c56 72 70 113 23 169z" />
    <glyph glyph-name="hungarumlaut" unicode="&#x2dd;" horiz-adv-x="482" 
d="M401 696l-123 -115l-30 27l114 122zM237 700l-116 -119l-30 27l107 126z" />
    <glyph glyph-name="ogonek" unicode="&#x2db;" horiz-adv-x="263" 
d="M204 -145c-22 -32 -58 -55 -95 -55c-43 0 -72 23 -72 67c0 40 27 93 87 133h63c-68 -41 -92 -89 -92 -117c0 -24 13 -35 31 -35c19 0 36 12 49 29z" />
    <glyph glyph-name="caron" unicode="&#x2c7;" horiz-adv-x="440" 
d="M339 708l-126 -127l-124 125l30 28l96 -88l96 88z" />
    <glyph glyph-name="emdash" unicode="&#x2014;" horiz-adv-x="1000" 
d="M875 275h-750v45h750v-45z" />
    <glyph glyph-name="AE" unicode="&#xc6;" horiz-adv-x="776" 
d="M694 0h-333v177h-251l-98 -177h-59l382 675h347v-43h-267v-262h257v-43h-257v-283h279v-44zM361 221v408h-3c-15 -30 -32 -64 -70 -132l-154 -276h227z" />
    <glyph glyph-name="ordfeminine" unicode="&#xaa;" horiz-adv-x="374" 
d="M299 361h-52c0 16 2 38 6 57l-2 1c-11 -31 -55 -64 -101 -64c-64 0 -93 31 -93 76c0 64 63 115 193 115v21c0 30 -8 73 -71 73c-37 0 -74 -11 -101 -26l-3 47c30 13 71 20 111 20c87 0 113 -52 113 -106c0 -55 -1 -106 -1 -125c0 -61 1 -80 1 -89zM330 246h-266v43h266
v-43zM250 501v8c-104 0 -142 -29 -142 -69c0 -26 18 -43 49 -43c68 0 93 74 93 104z" />
    <glyph glyph-name="Lslash" unicode="&#x141;" horiz-adv-x="444" 
d="M438 0h-318v302l-110 -40l-14 39l124 45v329h54v-309l132 48l14 -40l-146 -53v-277h264v-44z" />
    <glyph glyph-name="Oslash" unicode="&#xd8;" horiz-adv-x="706" 
d="M656 340c0 -227 -136 -348 -315 -348c-35 0 -66 4 -94 12l-40 -106l-43 16l40 106c-108 52 -154 170 -154 313c0 226 140 350 310 350c31 0 62 -4 89 -10l37 99l43 -16l-37 -98c105 -45 164 -155 164 -318zM598 330c0 132 -42 234 -125 279l-209 -559
c27 -9 56 -12 83 -12c145 0 251 105 251 292zM432 627c-24 7 -48 11 -79 11c-131 0 -245 -105 -245 -297c0 -122 32 -222 114 -272z" />
    <glyph glyph-name="OE" unicode="&#x152;" horiz-adv-x="866" 
d="M784 0h-328c-38 -5 -73 -8 -111 -8c-199 0 -295 137 -295 339c0 228 141 352 311 352c34 0 67 -3 97 -8h326v-43h-274v-262h261v-43h-261v-283h274v-44zM456 50v574c-33 9 -63 14 -101 14c-133 0 -247 -107 -247 -294c0 -180 81 -306 245 -306c32 0 71 4 103 12z" />
    <glyph glyph-name="ordmasculine" unicode="&#xba;" horiz-adv-x="413" 
d="M351 524c0 -100 -63 -168 -155 -168c-86 0 -140 46 -140 165c0 91 61 161 151 161c60 0 144 -25 144 -158zM337 246h-266v43h266v-43zM295 525c0 53 -20 113 -90 113c-46 0 -93 -33 -93 -117c0 -56 16 -120 89 -120c56 0 94 40 94 124z" />
    <glyph glyph-name="ae" unicode="&#xe6;" horiz-adv-x="813" 
d="M760 308c0 -6 0 -16 -1 -33h-342c-7 -168 57 -236 176 -236c49 0 99 10 140 29l12 -46c-46 -19 -102 -30 -164 -30c-118 0 -177 58 -197 126h-1c-27 -62 -97 -126 -194 -126c-75 0 -134 47 -134 127c0 96 104 168 309 168v41c0 85 -29 133 -121 133
c-48 0 -108 -16 -148 -39l-15 46c47 21 108 37 171 37c79 0 133 -28 152 -93h1c30 52 89 93 168 93c134 0 188 -93 188 -197zM702 318c2 87 -49 146 -134 146c-77 0 -132 -56 -147 -146h281zM364 232v12c-197 0 -254 -57 -254 -115c0 -53 36 -92 91 -92c98 0 163 99 163 195
z" />
    <glyph glyph-name="dotlessi" unicode="&#x131;" horiz-adv-x="253" 
d="M153 0h-53v497h53v-497z" />
    <glyph glyph-name="lslash" unicode="&#x142;" horiz-adv-x="289" 
d="M293 364l-122 -44v-320h-53v301l-108 -39l-14 39l122 44v385h53v-365l108 39z" />
    <glyph glyph-name="oslash" unicode="&#xf8;" horiz-adv-x="538" 
d="M490 256c0 -144 -85 -264 -229 -264c-27 0 -52 4 -74 11l-40 -105l-43 15l42 108c-72 44 -100 132 -100 227c0 137 81 257 230 257c17 0 35 -2 52 -5l36 94l43 -15l-36 -93c67 -31 119 -100 119 -230zM436 253c0 93 -27 158 -82 189l-150 -395c19 -8 42 -12 67 -12
c85 0 165 65 165 218zM312 458c-14 3 -29 5 -45 5c-78 0 -167 -54 -167 -211c0 -80 22 -146 65 -181z" />
    <glyph glyph-name="oe" unicode="&#x153;" horiz-adv-x="885" 
d="M832 308c0 -6 0 -16 -1 -33h-342c-7 -168 57 -236 176 -236c49 0 99 10 140 29l12 -46c-46 -19 -102 -30 -164 -30c-107 0 -170 48 -198 121c-35 -69 -96 -121 -196 -121c-130 0 -213 83 -213 256c0 137 81 257 230 257c80 0 153 -35 188 -114c33 67 94 114 180 114
c134 0 188 -93 188 -197zM774 318c2 87 -49 146 -134 146c-77 0 -133 -56 -147 -146h281zM435 253c0 130 -57 209 -166 209c-86 0 -168 -65 -168 -210c0 -137 62 -216 169 -216c85 0 165 64 165 217z" />
    <glyph glyph-name="germandbls" unicode="&#xdf;" horiz-adv-x="578" 
d="M529 142c0 -84 -70 -150 -192 -150c-34 0 -67 3 -92 8l6 53c28 -9 61 -14 92 -14c92 0 132 44 132 94c0 126 -215 99 -215 259c0 122 156 111 156 212c0 59 -48 87 -114 87c-95 0 -149 -50 -149 -181v-510h-53v505c0 170 90 229 208 229c108 0 161 -56 161 -123
c0 -141 -155 -119 -155 -215c0 -120 215 -99 215 -254z" />
    <glyph glyph-name="eth" unicode="&#xf0;" horiz-adv-x="538" 
d="M489 268c0 -188 -98 -276 -227 -276c-130 0 -216 83 -216 256c0 137 81 257 230 257c52 0 106 -17 130 -60c-13 27 -29 51 -35 62c-19 34 -42 66 -75 102l-111 -50l-25 34l105 47c-24 23 -53 47 -87 74l56 24c29 -23 56 -48 82 -75l111 49l25 -34l-107 -47
c89 -105 144 -231 144 -363zM434 261c0 122 -56 201 -165 201c-86 0 -168 -65 -168 -210c0 -137 65 -216 172 -216c86 0 161 62 161 225z" />
    <glyph glyph-name="Scaron" unicode="&#x160;" horiz-adv-x="504" 
d="M415 815l-150 -83l-153 80l22 38l134 -66l128 66zM443 189c0 -116 -92 -197 -239 -197c-51 0 -102 8 -141 20l10 53c42 -16 90 -25 136 -25c95 0 179 38 179 142c0 173 -327 112 -327 321c0 102 77 180 218 180c41 0 85 -5 121 -13l-8 -50c-36 11 -78 18 -117 18
c-108 0 -160 -51 -160 -129c0 -170 328 -109 328 -320z" />
    <glyph glyph-name="scaron" unicode="&#x161;" horiz-adv-x="433" 
d="M373 145c0 -83 -74 -153 -201 -153c-38 0 -81 4 -111 13l9 53c32 -12 76 -19 114 -19c78 0 135 37 135 97c0 135 -260 49 -260 229c0 81 65 140 185 140c32 0 71 -5 101 -12l-8 -47c-31 10 -67 16 -102 16c-82 0 -122 -35 -122 -90c0 -136 260 -52 260 -227zM345 708
l-126 -127l-124 125l30 28l96 -88l96 88z" />
    <glyph glyph-name="Yacute" unicode="&#xdd;" horiz-adv-x="513" 
d="M398 793l-165 -59l-14 34l157 73zM497 675l-216 -428v-247h-54v247l-211 428h60l125 -260c20 -41 38 -82 55 -123h1c17 43 39 89 61 133l122 250h57z" />
    <glyph glyph-name="yacute" unicode="&#xfd;" horiz-adv-x="458" 
d="M445 497l-209 -552c-56 -149 -111 -205 -220 -205c-15 0 -33 2 -47 5l6 50c14 -4 39 -7 56 -7c62 0 104 31 150 148l25 64l-193 497h63l119 -324c17 -47 27 -77 38 -111h1c8 27 29 87 51 149l101 286h59zM342 700l-120 -119l-30 27l111 126z" />
    <glyph glyph-name="Thorn" unicode="&#xde;" horiz-adv-x="517" 
d="M495 369c0 -140 -117 -224 -270 -224c-27 0 -49 1 -71 4v-149h-54v675h54v-110c32 2 61 3 94 3c155 0 247 -70 247 -199zM439 363c0 98 -60 160 -206 160c-25 0 -53 -2 -79 -6v-322c23 -3 49 -5 80 -5c131 0 205 63 205 173z" />
    <glyph glyph-name="thorn" unicode="&#xfe;" horiz-adv-x="558" 
d="M508 270c0 -181 -101 -275 -251 -275c-38 0 -66 1 -104 7v-254h-53v982h53v-233c0 -40 -2 -95 -7 -119l2 -1c28 78 95 128 176 128c116 0 184 -78 184 -235zM452 266c0 121 -42 196 -134 196c-113 0 -165 -132 -165 -222v-188c33 -11 68 -15 110 -15
c115 0 189 68 189 229z" />
    <glyph glyph-name="Zcaron" unicode="&#x17d;" horiz-adv-x="541" 
d="M430 815l-150 -83l-153 80l22 38l134 -66l128 66zM496 0h-449v37l322 494c23 35 43 65 67 98c-41 -1 -100 -2 -173 -2h-204v48h434v-37l-339 -520c-16 -25 -31 -47 -48 -72c25 3 98 3 190 3h200v-49z" />
    <glyph glyph-name="zcaron" unicode="&#x17e;" horiz-adv-x="444" 
d="M389 0h-339v37l276 415c-37 -1 -96 -2 -156 -2h-115v47h329v-36l-274 -414c33 1 105 2 157 2h122v-49zM345 708l-126 -127l-124 125l30 28l96 -88l96 88z" />
    <glyph glyph-name="onehalf" unicode="&#xbd;" horiz-adv-x="696" 
d="M622 0h-206v33l89 81c43 39 54 59 54 89s-22 54 -60 54c-18 0 -43 -8 -57 -21l-22 37c25 15 55 25 87 25c70 0 103 -43 103 -87c0 -39 -15 -72 -62 -113l-62 -54h136v-44zM586 642l-493 -661l-37 25l493 661zM187 359h-49v245l-74 -36l-15 39l95 43h43v-291z" />
    <glyph glyph-name="onequarter" unicode="&#xbc;" horiz-adv-x="690" 
d="M521 102v151l-96 -151h96zM626 62h-57v-62h-48v62h-147l-2 35l123 194h74v-189h57v-40zM586 642l-493 -661l-37 25l493 661zM187 359h-49v245l-74 -36l-15 39l95 43h43v-291z" />
    <glyph glyph-name="onesuperior" unicode="&#xb9;" horiz-adv-x="300" 
d="M187 359h-49v245l-74 -36l-15 39l95 43h43v-291z" />
    <glyph glyph-name="threequarters" unicode="&#xbe;" horiz-adv-x="688" 
d="M519 102v151l-96 -151h96zM624 62h-57v-62h-48v62h-147l-2 35l123 194h74v-189h57v-40zM584 642l-493 -661l-37 25l493 661zM237 444c0 -62 -54 -93 -129 -93c-19 0 -41 3 -57 7l9 42c16 -4 37 -8 55 -8c49 0 70 19 70 49c0 44 -32 53 -109 47v37h28c54 0 74 22 74 49
c0 23 -16 44 -56 44c-20 0 -38 -6 -52 -12l-15 35c22 11 49 16 77 16c65 0 94 -36 94 -75c0 -35 -15 -54 -46 -69c38 -6 57 -34 57 -69z" />
    <glyph glyph-name="threesuperior" unicode="&#xb3;" horiz-adv-x="300" 
d="M237 444c0 -62 -54 -92 -129 -92c-19 0 -41 3 -57 7l9 42c16 -4 37 -8 55 -8c49 0 70 18 70 48c0 44 -32 53 -109 47v37h28c54 0 74 22 74 49c0 23 -16 44 -56 44c-20 0 -38 -6 -52 -12l-15 35c22 11 49 16 77 16c65 0 94 -36 94 -75c0 -35 -15 -54 -46 -69
c38 -6 57 -34 57 -69z" />
    <glyph glyph-name="twosuperior" unicode="&#xb2;" horiz-adv-x="312" 
d="M255 359h-206v33l89 81c43 39 54 59 54 89s-22 54 -60 54c-18 0 -43 -8 -57 -21l-22 37c25 15 55 25 87 25c70 0 103 -43 103 -87c0 -39 -15 -72 -62 -113l-62 -54h136v-44z" />
    <glyph glyph-name="brokenbar" unicode="&#xa6;" horiz-adv-x="282" 
d="M162 380h-42v368h42v-368zM162 -252h-42v378h42v-378z" />
    <glyph glyph-name="minus" unicode="&#x2212;" 
d="M505 275h-460v45h460v-45z" />
    <glyph glyph-name="multiply" unicode="&#xd7;" 
d="M487 117l-32 -32l-181 181l-181 -181l-30 30l181 181l-181 181l32 32l181 -181l181 181l30 -30l-181 -181z" />
    <glyph glyph-name="Adieresis" unicode="&#xc4;" horiz-adv-x="605" 
d="M447 776c0 -22 -17 -39 -39 -39s-39 17 -39 39s17 39 39 39s39 -17 39 -39zM235 776c0 -22 -17 -39 -39 -39s-39 17 -39 39s17 39 39 39s39 -17 39 -39zM587 0h-63l-64 177h-319l-65 -177h-58l257 675h57zM444 221l-112 305c-12 33 -22 62 -31 90h-1
c-9 -28 -19 -57 -30 -88l-113 -307h287z" />
    <glyph glyph-name="Aring" unicode="&#xc5;" horiz-adv-x="605" 
d="M587 0h-63l-64 177h-319l-65 -177h-58l247 649c-36 14 -60 47 -60 90c0 55 46 98 100 98c57 0 100 -43 100 -98c0 -40 -26 -76 -63 -91zM363 739c0 33 -25 60 -58 60s-58 -27 -58 -60s25 -60 58 -60s58 27 58 60zM444 221l-112 305c-16 31 -22 62 -31 90h-1
c-9 -28 -19 -57 -30 -88l-113 -307h287z" />
    <glyph glyph-name="Ccedilla" unicode="&#xc7;" horiz-adv-x="600" 
d="M551 33c-53 -23 -122 -40 -196 -40c-197 0 -301 120 -301 332c0 199 91 357 323 357c54 0 113 -8 164 -23l-11 -50c-53 18 -112 29 -168 29c-180 0 -250 -141 -250 -304c0 -186 83 -294 260 -294c57 0 122 16 167 39zM353 -41c50 -63 34 -123 -23 -195h-50
c56 72 70 113 23 169z" />
    <glyph glyph-name="Eacute" unicode="&#xc9;" horiz-adv-x="510" 
d="M387 793l-165 -59l-14 34l157 73zM428 0h-328v675h328v-43h-274v-262h261v-43h-261v-283h274v-44z" />
    <glyph glyph-name="Ntilde" unicode="&#xd1;" horiz-adv-x="716" 
d="M517 807c-24 -41 -58 -65 -99 -65c-67 0 -90 57 -137 57c-23 0 -48 -16 -67 -47l-30 23c23 41 58 65 99 65c67 0 90 -57 137 -57c23 0 47 16 67 47zM616 0h-74l-315 492c-31 48 -57 91 -80 135c3 -84 7 -302 7 -434v-193h-54v675h74l312 -486c29 -45 57 -92 83 -138
c-3 99 -7 310 -7 449v175h54v-675z" />
    <glyph glyph-name="Odieresis" unicode="&#xd6;" horiz-adv-x="706" 
d="M493 776c0 -22 -17 -39 -39 -39s-39 17 -39 39s17 39 39 39s39 -17 39 -39zM281 776c0 -22 -17 -39 -39 -39s-39 17 -39 39s17 39 39 39s39 -17 39 -39zM656 344c0 -227 -141 -352 -311 -352c-199 0 -295 137 -295 339c0 228 141 352 311 352c185 0 295 -127 295 -339z
M598 332c0 194 -92 306 -245 306c-131 0 -245 -107 -245 -294c0 -180 81 -306 245 -306c130 0 245 107 245 294z" />
    <glyph glyph-name="Udieresis" unicode="&#xdc;" horiz-adv-x="704" 
d="M491 776c0 -22 -17 -39 -39 -39s-39 17 -39 39s17 39 39 39s39 -17 39 -39zM279 776c0 -22 -17 -39 -39 -39s-39 17 -39 39s17 39 39 39s39 -17 39 -39zM604 254c0 -169 -86 -262 -260 -262c-208 0 -244 118 -244 228v455h54v-448c0 -102 35 -191 195 -191
c134 0 202 56 202 212v427h53v-421z" />
    <glyph glyph-name="aacute" unicode="&#xe1;" horiz-adv-x="518" 
d="M419 0h-55c0 42 1 83 6 113l-2 1c-24 -67 -90 -122 -179 -122c-75 0 -134 47 -134 127c0 96 104 168 309 168v41c0 85 -29 133 -121 133c-48 0 -108 -16 -148 -39l-15 46c47 21 108 37 171 37c130 0 166 -69 166 -158v-189c0 -53 1 -112 2 -158zM364 232v12
c-197 0 -254 -57 -254 -115c0 -53 36 -92 91 -92c98 0 163 99 163 195zM359 700l-120 -119l-30 27l111 126z" />
    <glyph glyph-name="agrave" unicode="&#xe0;" horiz-adv-x="518" 
d="M419 0h-55c0 42 1 83 6 113l-2 1c-24 -67 -90 -122 -179 -122c-75 0 -134 47 -134 127c0 96 104 168 309 168v41c0 85 -29 133 -121 133c-48 0 -108 -16 -148 -39l-15 46c47 21 108 37 171 37c130 0 166 -69 166 -158v-189c0 -53 1 -112 2 -158zM364 232v12
c-197 0 -254 -57 -254 -115c0 -53 36 -92 91 -92c98 0 163 99 163 195zM300 608l-30 -27l-120 119l39 34z" />
    <glyph glyph-name="acircumflex" unicode="&#xe2;" horiz-adv-x="518" 
d="M419 0h-55c0 42 1 83 6 113l-2 1c-24 -67 -90 -122 -179 -122c-75 0 -134 47 -134 127c0 96 104 168 309 168v41c0 85 -29 133 -121 133c-48 0 -108 -16 -148 -39l-15 46c47 21 108 37 171 37c130 0 166 -69 166 -158v-189c0 -53 1 -112 2 -158zM364 232v12
c-197 0 -254 -57 -254 -115c0 -53 36 -92 91 -92c98 0 163 99 163 195zM376 609l-30 -28l-96 88l-96 -88l-28 26l126 127z" />
    <glyph glyph-name="adieresis" unicode="&#xe4;" horiz-adv-x="518" 
d="M419 0h-55c0 42 1 83 6 113l-2 1c-24 -67 -90 -122 -179 -122c-75 0 -134 47 -134 127c0 96 104 168 309 168v41c0 85 -29 133 -121 133c-48 0 -108 -16 -148 -39l-15 46c47 21 108 37 171 37c130 0 166 -69 166 -158v-189c0 -53 1 -112 2 -158zM364 232v12
c-197 0 -254 -57 -254 -115c0 -53 36 -92 91 -92c98 0 163 99 163 195zM380 660c0 -22 -17 -39 -39 -39s-39 17 -39 39s17 39 39 39s39 -17 39 -39zM198 660c0 -22 -17 -39 -39 -39s-39 17 -39 39s17 39 39 39s39 -17 39 -39z" />
    <glyph glyph-name="atilde" unicode="&#xe3;" horiz-adv-x="518" 
d="M419 0h-55c0 42 1 83 6 113l-2 1c-24 -67 -90 -122 -179 -122c-75 0 -134 47 -134 127c0 96 104 168 309 168v41c0 85 -29 133 -121 133c-48 0 -108 -16 -148 -39l-15 46c47 21 108 37 171 37c130 0 166 -69 166 -158v-189c0 -53 1 -112 2 -158zM364 232v12
c-197 0 -254 -57 -254 -115c0 -53 36 -92 91 -92c98 0 163 99 163 195zM406 675c-23 -42 -57 -66 -97 -66c-64 0 -86 58 -131 58c-22 0 -45 -16 -64 -48l-29 24c23 42 57 66 97 66c64 0 86 -58 131 -58c22 0 45 16 64 48z" />
    <glyph glyph-name="aring" unicode="&#xe5;" horiz-adv-x="518" 
d="M419 0h-55c0 42 1 83 6 113l-2 1c-24 -67 -90 -122 -179 -122c-75 0 -134 47 -134 127c0 96 104 168 309 168v41c0 85 -29 133 -121 133c-48 0 -108 -16 -148 -39l-15 46c47 21 108 37 171 37c130 0 166 -69 166 -158v-189c0 -53 1 -112 2 -158zM364 232v12
c-197 0 -254 -57 -254 -115c0 -53 36 -92 91 -92c98 0 163 99 163 195zM356 658c0 -52 -45 -98 -100 -98c-56 0 -100 41 -100 98c0 55 46 98 100 98c57 0 100 -43 100 -98zM314 658c0 33 -25 60 -58 60s-58 -27 -58 -60s25 -60 58 -60s58 27 58 60z" />
    <glyph glyph-name="ccedilla" unicode="&#xe7;" horiz-adv-x="446" 
d="M416 24c-44 -19 -102 -30 -157 -30c-100 0 -211 41 -211 237c0 166 82 272 230 272c52 0 99 -9 135 -24l-13 -44c-35 14 -84 26 -133 26c-104 0 -163 -92 -163 -217c0 -110 32 -205 166 -205c49 0 95 10 134 28zM261 -41c50 -63 34 -123 -23 -195h-50
c56 72 70 113 23 169z" />
    <glyph glyph-name="eacute" unicode="&#xe9;" horiz-adv-x="501" 
d="M448 308c0 -6 0 -16 -1 -33h-342c-7 -168 57 -236 176 -236c49 0 99 10 140 29l12 -46c-46 -19 -102 -30 -164 -30c-144 0 -221 81 -221 255c0 148 79 258 212 258c134 0 188 -93 188 -197zM390 318c2 87 -49 146 -134 146c-77 0 -133 -56 -147 -146h281zM362 700
l-120 -119l-30 27l111 126z" />
    <glyph glyph-name="egrave" unicode="&#xe8;" horiz-adv-x="501" 
d="M448 308c0 -6 0 -16 -1 -33h-342c-7 -168 57 -236 176 -236c49 0 99 10 140 29l12 -46c-46 -19 -102 -30 -164 -30c-144 0 -221 81 -221 255c0 148 79 258 212 258c134 0 188 -93 188 -197zM390 318c2 87 -49 146 -134 146c-77 0 -133 -56 -147 -146h281zM301 608
l-30 -27l-120 119l39 34z" />
    <glyph glyph-name="ecircumflex" unicode="&#xea;" horiz-adv-x="501" 
d="M448 308c0 -6 0 -16 -1 -33h-342c-7 -168 57 -236 176 -236c49 0 99 10 140 29l12 -46c-46 -19 -102 -30 -164 -30c-144 0 -221 81 -221 255c0 148 79 258 212 258c134 0 188 -93 188 -197zM390 318c2 87 -49 146 -134 146c-77 0 -133 -56 -147 -146h281zM382 609
l-30 -28l-96 88l-96 -88l-28 26l126 127z" />
    <glyph glyph-name="edieresis" unicode="&#xeb;" horiz-adv-x="501" 
d="M448 308c0 -6 0 -16 -1 -33h-342c-7 -168 57 -236 176 -236c49 0 99 10 140 29l12 -46c-46 -19 -102 -30 -164 -30c-144 0 -221 81 -221 255c0 148 79 258 212 258c134 0 188 -93 188 -197zM390 318c2 87 -49 146 -134 146c-77 0 -133 -56 -147 -146h281zM389 660
c0 -22 -17 -39 -39 -39s-39 17 -39 39s17 39 39 39s39 -17 39 -39zM207 660c0 -22 -17 -39 -39 -39s-39 17 -39 39s17 39 39 39s39 -17 39 -39z" />
    <glyph glyph-name="iacute" unicode="&#xed;" horiz-adv-x="253" 
d="M153 0h-53v497h53v-497zM215 700l-120 -119l-30 27l111 126z" />
    <glyph glyph-name="igrave" unicode="&#xec;" horiz-adv-x="253" 
d="M153 0h-53v497h53v-497zM183 608l-30 -27l-120 119l39 34z" />
    <glyph glyph-name="icircumflex" unicode="&#xee;" horiz-adv-x="253" 
d="M153 0h-53v497h53v-497zM252 609l-30 -28l-96 88l-96 -88l-28 26l126 127z" />
    <glyph glyph-name="idieresis" unicode="&#xef;" horiz-adv-x="253" 
d="M153 0h-53v497h53v-497zM256 660c0 -22 -17 -39 -39 -39s-39 17 -39 39s17 39 39 39s39 -17 39 -39zM74 660c0 -22 -17 -39 -39 -39s-39 17 -39 39s17 39 39 39s39 -17 39 -39z" />
    <glyph glyph-name="ntilde" unicode="&#xf1;" horiz-adv-x="580" 
d="M480 0h-53v323c0 88 -24 139 -107 139c-99 0 -167 -94 -167 -225v-237h-53v497h55c0 -37 -3 -88 -9 -120l2 -1c28 78 93 129 182 129c115 0 150 -71 150 -160v-345zM455 675c-23 -42 -57 -66 -97 -66c-64 0 -86 58 -131 58c-22 0 -45 -16 -64 -48l-29 24
c23 42 57 66 97 66c64 0 86 -58 131 -58c22 0 45 16 64 48z" />
    <glyph glyph-name="oacute" unicode="&#xf3;" horiz-adv-x="538" 
d="M490 256c0 -144 -85 -264 -231 -264c-130 0 -213 83 -213 256c0 137 81 257 230 257c112 0 214 -62 214 -249zM435 253c0 130 -57 209 -166 209c-86 0 -168 -65 -168 -210c0 -137 62 -216 169 -216c85 0 165 64 165 217zM378 700l-120 -119l-30 27l111 126z" />
    <glyph glyph-name="ograve" unicode="&#xf2;" horiz-adv-x="538" 
d="M490 256c0 -144 -85 -264 -231 -264c-130 0 -213 83 -213 256c0 137 81 257 230 257c112 0 214 -62 214 -249zM435 253c0 130 -57 209 -166 209c-86 0 -168 -65 -168 -210c0 -137 62 -216 169 -216c85 0 165 64 165 217zM321 608l-30 -27l-120 119l39 34z" />
    <glyph glyph-name="ocircumflex" unicode="&#xf4;" horiz-adv-x="538" 
d="M490 256c0 -144 -85 -264 -231 -264c-130 0 -213 83 -213 256c0 137 81 257 230 257c112 0 214 -62 214 -249zM435 253c0 130 -57 209 -166 209c-86 0 -168 -65 -168 -210c0 -137 62 -216 169 -216c85 0 165 64 165 217zM391 609l-30 -28l-96 88l-96 -88l-28 26l126 127z
" />
    <glyph glyph-name="odieresis" unicode="&#xf6;" horiz-adv-x="538" 
d="M490 256c0 -144 -85 -264 -231 -264c-130 0 -213 83 -213 256c0 137 81 257 230 257c112 0 214 -62 214 -249zM435 253c0 130 -57 209 -166 209c-86 0 -168 -65 -168 -210c0 -137 62 -216 169 -216c85 0 165 64 165 217zM395 660c0 -22 -17 -39 -39 -39s-39 17 -39 39
s17 39 39 39s39 -17 39 -39zM213 660c0 -22 -17 -39 -39 -39s-39 17 -39 39s17 39 39 39s39 -17 39 -39z" />
    <glyph glyph-name="otilde" unicode="&#xf5;" horiz-adv-x="538" 
d="M490 256c0 -144 -85 -264 -231 -264c-130 0 -213 83 -213 256c0 137 81 257 230 257c112 0 214 -62 214 -249zM435 253c0 130 -57 209 -166 209c-86 0 -168 -65 -168 -210c0 -137 62 -216 169 -216c85 0 165 64 165 217zM432 675c-23 -42 -57 -66 -97 -66
c-64 0 -86 58 -131 58c-22 0 -45 -16 -64 -48l-29 24c23 42 57 66 97 66c64 0 86 -58 131 -58c22 0 45 16 64 48z" />
    <glyph glyph-name="uacute" unicode="&#xfa;" horiz-adv-x="580" 
d="M480 0h-55c0 37 3 88 9 120l-2 1c-28 -78 -93 -129 -182 -129c-115 0 -150 71 -150 160v345h53v-323c0 -88 24 -139 107 -139c99 0 167 94 167 225v237h53v-497zM390 700l-120 -119l-30 27l111 126z" />
    <glyph glyph-name="ugrave" unicode="&#xf9;" horiz-adv-x="580" 
d="M480 0h-55c0 37 3 88 9 120l-2 1c-28 -78 -93 -129 -182 -129c-115 0 -150 71 -150 160v345h53v-323c0 -88 24 -139 107 -139c99 0 167 94 167 225v237h53v-497zM342 608l-30 -27l-120 119l39 34z" />
    <glyph glyph-name="ucircumflex" unicode="&#xfb;" horiz-adv-x="580" 
d="M480 0h-55c0 37 3 88 9 120l-2 1c-28 -78 -93 -129 -182 -129c-115 0 -150 71 -150 160v345h53v-323c0 -88 24 -139 107 -139c99 0 167 94 167 225v237h53v-497zM412 609l-30 -28l-96 88l-96 -88l-28 26l126 127z" />
    <glyph glyph-name="udieresis" unicode="&#xfc;" horiz-adv-x="580" 
d="M480 0h-55c0 37 3 88 9 120l-2 1c-28 -78 -93 -129 -182 -129c-115 0 -150 71 -150 160v345h53v-323c0 -88 24 -139 107 -139c99 0 167 94 167 225v237h53v-497zM417 660c0 -22 -17 -39 -39 -39s-39 17 -39 39s17 39 39 39s39 -17 39 -39zM235 660c0 -22 -17 -39 -39 -39
s-39 17 -39 39s17 39 39 39s39 -17 39 -39z" />
    <glyph glyph-name="degree" unicode="&#xb0;" horiz-adv-x="364" 
d="M299 618c0 -69 -60 -115 -121 -115c-70 0 -114 45 -114 113c0 73 58 117 119 117c77 0 116 -53 116 -115zM252 617c0 34 -15 78 -72 78c-38 0 -69 -31 -69 -77c0 -48 28 -77 69 -77s72 31 72 76z" />
    <glyph glyph-name="registered" unicode="&#xae;" horiz-adv-x="561" 
d="M487 527c0 -112 -95 -207 -207 -207c-118 0 -207 91 -207 207c0 114 93 207 207 207c117 0 207 -90 207 -207zM444 525c0 91 -73 169 -164 169s-164 -74 -164 -165s73 -169 164 -169s164 74 164 165zM368 412h-47l-68 105h-2v-105h-37v233h66c55 0 77 -23 77 -58
c0 -40 -25 -64 -63 -68c5 -6 14 -19 23 -33zM319 582c0 23 -11 33 -41 33h-27v-74h17c39 0 51 22 51 41z" />
    <glyph glyph-name="copyright" unicode="&#xa9;" horiz-adv-x="750" 
d="M702 337c0 -182 -147 -329 -329 -329c-189 0 -330 144 -330 327c0 182 147 329 330 329s329 -144 329 -327zM656 335c0 156 -126 286 -283 286s-283 -126 -283 -284c0 -157 126 -287 283 -287s283 127 283 285zM470 174c-29 -10 -64 -15 -96 -15c-118 0 -156 76 -156 171
c0 94 44 184 173 184c28 0 54 -5 76 -11l-3 -44c-24 10 -52 16 -80 16c-87 0 -115 -64 -115 -141c0 -84 33 -134 111 -134c32 0 60 5 87 15z" />
    <glyph glyph-name="trademark" unicode="&#x2122;" horiz-adv-x="708" 
d="M641 394h-45l-26 173l-8 60l-14 -50l-58 -183h-53l-56 185l-13 48l-3 -38l-30 -195h-42l42 281h65l55 -184l12 -51l10 45l60 190h63zM266 641h-80v-247h-47v247h-80v34h207v-34z" />
    <glyph glyph-name="notequal" unicode="&#x2260;" 
d="M492 199h-235l-63 -156h-46l63 156h-153v46h171l42 105h-213v46h231l65 161h47l-65 -161h156v-46h-174l-43 -105h217v-46z" />
    <glyph glyph-name="infinity" unicode="&#x221e;" horiz-adv-x="966" 
d="M896 302c0 -83 -62 -155 -165 -155c-86 0 -169 58 -250 120c-80 -60 -165 -120 -249 -120c-110 0 -162 69 -162 148c0 83 62 155 165 155c86 0 171 -59 251 -120c81 61 165 120 248 120c110 0 162 -69 162 -148zM839 297c0 62 -38 106 -111 106c-60 0 -129 -48 -202 -103
c73 -55 142 -106 208 -106c67 0 105 48 105 103zM441 297c-73 55 -143 106 -209 106c-67 0 -105 -48 -105 -103c0 -62 38 -106 111 -106c61 0 130 48 203 103z" />
    <glyph glyph-name="plusminus" unicode="&#xb1;" 
d="M505 325h-205v-209h-50v209h-205v45h205v208h50v-208h205v-45zM505 0h-460v45h460v-45z" />
    <glyph glyph-name="lessequal" unicode="&#x2264;" 
d="M473 152l-25 -43l-388 239l387 241l26 -39l-329 -201zM485 0h-420v45h420v-45z" />
    <glyph glyph-name="greaterequal" unicode="&#x2265;" 
d="M490 350l-387 -241l-26 39l329 201l-329 197l25 43zM485 0h-420v45h420v-45z" />
    <glyph glyph-name="mu" unicode="&#xb5;" horiz-adv-x="623" 
d="M593 69c-13 -42 -50 -77 -100 -77c-60 0 -74 61 -59 122h-1c-25 -72 -94 -122 -173 -122c-50 0 -87 13 -112 37l8 -281h-56v749h53v-314c0 -89 26 -147 117 -147c89 0 157 93 157 199v262h53v-367c0 -69 9 -87 33 -87c22 0 39 21 46 42z" />
    <glyph glyph-name="partialdiff" unicode="&#x2202;" horiz-adv-x="640" 
d="M556 418c0 -109 -21 -237 -82 -325c-40 -58 -108 -101 -191 -101c-128 0 -196 78 -196 204c0 132 95 233 232 233c94 0 157 -51 181 -123c2 37 3 68 3 100c0 196 -102 287 -238 285l3 43c176 -4 288 -117 288 -316zM466 238c0 83 -54 147 -154 147s-170 -82 -170 -184
c0 -111 62 -164 147 -164c102 0 177 89 177 201z" />
    <glyph glyph-name="summation" unicode="&#x2211;" horiz-adv-x="611" 
d="M548 -252h-512v40l327 459l-307 443v40h478v-47h-410l303 -434l-325 -452h446v-49z" />
    <glyph glyph-name="product" unicode="&#x220f;" horiz-adv-x="784" 
d="M735 683h-114v-935h-54v935h-350v-935h-54v935h-114v47h686v-47z" />
    <glyph glyph-name="pi" unicode="&#x3c0;" horiz-adv-x="675" 
d="M616 1c-21 -5 -52 -8 -80 -8c-85 0 -100 45 -100 143v319h-222v-455h-53v455h-120v42h569v-42h-121v-257c0 -140 6 -161 64 -161c20 0 42 4 59 9z" />
    <glyph glyph-name="integral" unicode="&#x222b;" horiz-adv-x="333" 
d="M318 680c-14 5 -36 9 -54 9c-60 0 -84 -31 -84 -197c0 -159 10 -275 10 -500c0 -188 -46 -252 -141 -252c-17 0 -35 2 -49 5v49c13 -4 35 -8 53 -8c60 0 84 30 84 189c0 146 -10 282 -10 506c0 189 46 253 141 253c17 0 35 -2 50 -6v-48z" />
    <glyph glyph-name="Omega" unicode="&#x3a9;" horiz-adv-x="749" 
d="M673 0h-210v48c93 65 152 152 152 297c0 163 -78 297 -238 297c-152 0 -247 -119 -247 -292c0 -136 44 -225 155 -302v-48h-214v41h161c-100 63 -156 171 -156 305c0 201 122 337 303 337c172 0 291 -114 291 -329c0 -145 -66 -254 -159 -313h162v-41z" />
    <glyph glyph-name="logicalnot" unicode="&#xac;" 
d="M475 111h-45v164h-385v45h430v-209z" />
    <glyph glyph-name="radical" unicode="&#x221a;" horiz-adv-x="600" 
d="M554 758l-236 -758h-60l-162 455h-96v42h137l109 -319c15 -43 29 -87 42 -130h2c11 41 21 81 33 120l175 590h56z" />
    <glyph glyph-name="approxequal" unicode="&#x2248;" 
d="M496 370c-26 -25 -65 -50 -118 -50c-102 0 -122 61 -210 61c-44 0 -78 -27 -96 -42l-18 40c26 23 65 49 118 49c94 0 128 -63 210 -63c36 0 64 17 96 45zM496 213c-26 -20 -65 -45 -118 -45c-102 0 -122 61 -210 61c-44 0 -78 -27 -96 -42l-18 40c26 23 65 49 118 49
c94 0 128 -63 210 -63c36 0 64 15 96 40z" />
    <glyph glyph-name="Delta" unicode="&#x394;" horiz-adv-x="709" 
d="M671 0h-632l281 700h64zM593 47l-244 604l-237 -604h481z" />
    <glyph glyph-name="nbspace" unicode="&#xa0;" horiz-adv-x="218" 
 />
    <glyph glyph-name="Agrave" unicode="&#xc0;" horiz-adv-x="605" 
d="M350 768l-14 -34l-165 59l22 48zM587 0h-63l-64 177h-319l-65 -177h-58l257 675h57zM444 221l-112 305c-12 33 -22 62 -31 90h-1c-9 -28 -19 -57 -30 -88l-113 -307h287z" />
    <glyph glyph-name="Atilde" unicode="&#xc3;" horiz-adv-x="605" 
d="M472 807c-24 -41 -58 -65 -99 -65c-67 0 -90 57 -137 57c-23 0 -48 -16 -67 -47l-30 23c23 41 58 65 99 65c67 0 90 -57 137 -57c23 0 47 16 67 47zM587 0h-63l-64 177h-319l-65 -177h-58l257 675h57zM444 221l-112 305c-12 33 -22 62 -31 90h-1c-9 -28 -19 -57 -30 -88
l-113 -307h287z" />
    <glyph glyph-name="Otilde" unicode="&#xd5;" horiz-adv-x="706" 
d="M518 807c-24 -41 -58 -65 -99 -65c-67 0 -90 57 -137 57c-23 0 -48 -16 -67 -47l-30 23c23 41 58 65 99 65c67 0 90 -57 137 -57c23 0 47 16 67 47zM656 344c0 -227 -141 -352 -311 -352c-199 0 -295 137 -295 339c0 228 141 352 311 352c185 0 295 -127 295 -339z
M598 332c0 194 -92 306 -245 306c-131 0 -245 -107 -245 -294c0 -180 81 -306 245 -306c130 0 245 107 245 294z" />
    <glyph glyph-name="divide" unicode="&#xf7;" 
d="M316 498c0 -24 -19 -43 -43 -43s-43 19 -43 43s19 43 43 43s43 -19 43 -43zM505 275h-460v45h460v-45zM316 95c0 -24 -19 -43 -43 -43s-43 19 -43 43s19 43 43 43s43 -19 43 -43z" />
    <glyph glyph-name="lozenge" unicode="&#x25ca;" horiz-adv-x="612" 
d="M567 334l-240 -342h-34l-248 350l242 341h31zM510 329l-209 296l-198 -281l209 -291z" />
    <glyph glyph-name="ydieresis" unicode="&#xff;" horiz-adv-x="458" 
d="M445 497l-209 -552c-56 -149 -111 -205 -220 -205c-15 0 -33 2 -47 5l6 50c14 -4 39 -7 56 -7c62 0 104 31 150 148l25 64l-193 497h63l119 -324c17 -47 27 -77 38 -111h1c8 27 29 87 51 149l101 286h59zM357 660c0 -22 -17 -39 -39 -39s-39 17 -39 39s17 39 39 39
s39 -17 39 -39zM175 660c0 -22 -17 -39 -39 -39s-39 17 -39 39s17 39 39 39s39 -17 39 -39z" />
    <glyph glyph-name="Ydieresis" unicode="&#x178;" horiz-adv-x="513" 
d="M399 776c0 -22 -17 -39 -39 -39s-39 17 -39 39s17 39 39 39s39 -17 39 -39zM187 776c0 -22 -17 -39 -39 -39s-39 17 -39 39s17 39 39 39s39 -17 39 -39zM497 675l-216 -428v-247h-54v247l-211 428h60l125 -260c20 -41 38 -82 55 -123h1c17 43 39 89 61 133l122 250h57z
" />
    <glyph glyph-name="Euro" unicode="&#x20ac;" 
d="M508 27c-52 -23 -113 -35 -161 -35c-147 0 -224 80 -241 242h-95v41h92c-1 11 -1 24 -1 37c0 23 1 46 3 68h-94v41h99c21 141 99 237 252 237c47 0 101 -12 134 -27l-15 -44c-34 15 -84 27 -133 27c-116 0 -166 -88 -183 -193h214v-41h-219c-1 -19 -2 -38 -2 -59
c0 -15 0 -31 1 -46h220v-41h-217c16 -128 74 -194 199 -194c41 0 93 13 133 30z" />
    <glyph glyph-name="Acircumflex" unicode="&#xc2;" horiz-adv-x="605" 
d="M453 770l-22 -38l-134 66l-128 -66l-19 35l150 83zM587 0h-63l-64 177h-319l-65 -177h-58l257 675h57zM444 221l-112 305c-12 33 -22 62 -31 90h-1c-9 -28 -19 -57 -30 -88l-113 -307h287z" />
    <glyph glyph-name="Ecircumflex" unicode="&#xca;" horiz-adv-x="510" 
d="M412 770l-22 -38l-134 66l-128 -66l-19 35l150 83zM428 0h-328v675h328v-43h-274v-262h261v-43h-261v-283h274v-44z" />
    <glyph glyph-name="Aacute" unicode="&#xc1;" horiz-adv-x="605" 
d="M430 793l-165 -59l-14 34l157 73zM587 0h-63l-64 177h-319l-65 -177h-58l257 675h57zM444 221l-112 305c-12 33 -22 62 -31 90h-1c-9 -28 -19 -57 -30 -88l-113 -307h287z" />
    <glyph glyph-name="Edieresis" unicode="&#xcb;" horiz-adv-x="510" 
d="M402 776c0 -22 -17 -39 -39 -39s-39 17 -39 39s17 39 39 39s39 -17 39 -39zM190 776c0 -22 -17 -39 -39 -39s-39 17 -39 39s17 39 39 39s39 -17 39 -39zM428 0h-328v675h328v-43h-274v-262h261v-43h-261v-283h274v-44z" />
    <glyph glyph-name="Egrave" unicode="&#xc8;" horiz-adv-x="510" 
d="M314 768l-14 -34l-165 59l22 48zM428 0h-328v675h328v-43h-274v-262h261v-43h-261v-283h274v-44z" />
    <glyph glyph-name="Iacute" unicode="&#xcd;" horiz-adv-x="254" 
d="M263 793l-165 -59l-14 34l157 73zM154 0h-54v675h54v-675z" />
    <glyph glyph-name="Icircumflex" unicode="&#xce;" horiz-adv-x="254" 
d="M280 770l-22 -38l-134 66l-128 -66l-19 35l150 83zM154 0h-54v675h54v-675z" />
    <glyph glyph-name="Idieresis" unicode="&#xcf;" horiz-adv-x="254" 
d="M272 776c0 -22 -17 -39 -39 -39s-39 17 -39 39s17 39 39 39s39 -17 39 -39zM60 776c0 -22 -17 -39 -39 -39s-39 17 -39 39s17 39 39 39s39 -17 39 -39zM154 0h-54v675h54v-675z" />
    <glyph glyph-name="Igrave" unicode="&#xcc;" horiz-adv-x="254" 
d="M173 768l-14 -34l-165 59l22 48zM154 0h-54v675h54v-675z" />
    <glyph glyph-name="Oacute" unicode="&#xd3;" horiz-adv-x="706" 
d="M488 793l-165 -59l-14 34l157 73zM656 344c0 -227 -141 -352 -311 -352c-199 0 -295 137 -295 339c0 228 141 352 311 352c185 0 295 -127 295 -339zM598 332c0 194 -92 306 -245 306c-131 0 -245 -107 -245 -294c0 -180 81 -306 245 -306c130 0 245 107 245 294z" />
    <glyph glyph-name="Ocircumflex" unicode="&#xd4;" horiz-adv-x="706" 
d="M510 770l-22 -38l-134 66l-128 -66l-19 35l150 83zM656 344c0 -227 -141 -352 -311 -352c-199 0 -295 137 -295 339c0 228 141 352 311 352c185 0 295 -127 295 -339zM598 332c0 194 -92 306 -245 306c-131 0 -245 -107 -245 -294c0 -180 81 -306 245 -306
c130 0 245 107 245 294z" />
    <glyph glyph-name="apple" unicode="&#xf8ff;" horiz-adv-x="1039" 
d="M29 358l105 -4v-27l-105 -4v35zM168 669c8 8 15 16 24 24l71 -77c-7 -6 -13 -12 -20 -18zM534 706h-28l-3 104h34zM776 617l71 75c9 -8 17 -16 24 -24l-76 -71c-6 7 -12 13 -19 20zM1010 358v-35l-105 4v27zM747 340c0 -70 -31 -129 -69 -163v-75l-16 -5l31 -73l-29 -7
l29 -70l-29 -7l11 -26l-28 -63h-46c-3 -23 -38 -41 -81 -41c-44 0 -79 18 -81 41h-46l-46 112l30 8l-30 73l33 8l-19 47v77c-38 37 -69 97 -69 164c0 126 101 228 228 228c125 0 227 -102 227 -228zM394 191h68l-17 146c-16 -4 -26 -9 -35 -12c-17 -5 -17 27 -8 30
c36 10 78 19 118 19c41 0 82 -8 119 -19c8 -2 8 -35 -8 -30c-10 5 -22 8 -38 12l-15 -146h68c35 31 68 84 68 149c0 108 -87 195 -194 195c-108 0 -195 -87 -195 -195c0 -56 23 -111 69 -149zM568 341c-19 4 -33 4 -48 4c-14 0 -31 0 -50 -4l15 -150h69zM649 164h-258v-62
l17 -42l241 61v43zM654 41l-20 49l-248 -64l19 -47zM654 -35l-19 44l-249 -63l28 -68h213l16 38l-8 17l-79 -20l-10 25zM510 357v1h-2v6h-1v-7h3zM514 362h-1v-3c0 -2 -1 -1 -1 0v3h-1v-3c0 -3 3 -2 3 0v3zM518 357v1c-2 -1 -2 4 0 3v1c-3 1 -4 -6 0 -5zM522 355
c-2 3 -2 7 0 10c-3 0 -3 -10 0 -10zM525 358v-1h1v3c0 2 -2 3 -4 1c1 0 2 1 3 -1c-3 0 -5 -5 0 -2zM525 359c-2 1 -3 -3 0 0zM528 357c6 0 -1 4 2 4v1c-6 0 2 -4 -2 -4v-1zM531 355c2 3 2 7 0 10c3 0 3 -10 0 -10z" />
    <glyph glyph-name="Ograve" unicode="&#xd2;" horiz-adv-x="706" 
d="M401 768l-14 -34l-165 59l22 48zM656 344c0 -227 -141 -352 -311 -352c-199 0 -295 137 -295 339c0 228 141 352 311 352c185 0 295 -127 295 -339zM598 332c0 194 -92 306 -245 306c-131 0 -245 -107 -245 -294c0 -180 81 -306 245 -306c130 0 245 107 245 294z" />
    <glyph glyph-name="Uacute" unicode="&#xda;" horiz-adv-x="704" 
d="M473 793l-165 -59l-14 34l157 73zM604 254c0 -169 -86 -262 -260 -262c-208 0 -244 118 -244 228v455h54v-448c0 -102 35 -191 195 -191c134 0 202 56 202 212v427h53v-421z" />
    <glyph glyph-name="Ucircumflex" unicode="&#xdb;" horiz-adv-x="704" 
d="M503 770l-22 -38l-134 66l-128 -66l-19 35l150 83zM604 254c0 -169 -86 -262 -260 -262c-208 0 -244 118 -244 228v455h54v-448c0 -102 35 -191 195 -191c134 0 202 56 202 212v427h53v-421z" />
    <glyph glyph-name="Ugrave" unicode="&#xd9;" horiz-adv-x="704" 
d="M408 768l-14 -34l-165 59l22 48zM604 254c0 -169 -86 -262 -260 -262c-208 0 -244 118 -244 228v455h54v-448c0 -102 35 -191 195 -191c134 0 202 56 202 212v427h53v-421z" />
    <glyph glyph-name="Eth" unicode="&#xd0;" horiz-adv-x="700" 
d="M646 341c0 -232 -160 -344 -382 -344c-66 0 -111 4 -153 3v329h-111v42h111v304c52 0 121 3 185 3c224 0 350 -110 350 -337zM590 338c0 199 -107 297 -302 297c-41 0 -93 -2 -123 -3v-261h160v-42h-160v-283c7 -1 78 -5 108 -5c188 0 317 91 317 297z" />
    <glyph glyph-name="Grave" unicode="&#xf6ce;" horiz-adv-x="365" 
d="M259 768l-14 -34l-165 59l22 48z" />
    <glyph glyph-name="Acute" unicode="&#xf6c9;" horiz-adv-x="384" 
d="M280 793l-165 -59l-14 34l157 73z" />
    <glyph glyph-name="Dieresis" unicode="&#xf6cb;" horiz-adv-x="546" 
d="M410 776c0 -22 -17 -39 -39 -39s-39 17 -39 39s17 39 39 39s39 -17 39 -39zM198 776c0 -22 -17 -39 -39 -39s-39 17 -39 39s17 39 39 39s39 -17 39 -39z" />
    <glyph glyph-name="Circumflex" horiz-adv-x="440" 
d="M371 770l-22 -38l-134 66l-128 -66l-19 35l150 83z" />
    <glyph glyph-name="Tilde" horiz-adv-x="524" 
d="M438 807c-24 -41 -58 -65 -99 -65c-67 0 -90 57 -137 57c-23 0 -48 -16 -67 -47l-30 23c23 41 58 65 99 65c67 0 90 -57 137 -57c23 0 47 16 67 47z" />
    <glyph glyph-name="Caron" unicode="&#xf6ca;" horiz-adv-x="440" 
d="M368 815l-150 -83l-153 80l22 38l134 -66l128 66z" />
    <glyph glyph-name="uni20AC" 
d="M508 27c-52 -23 -113 -35 -161 -35c-147 0 -224 80 -241 242h-95v41h92c-1 11 -1 24 -1 37c0 23 1 46 3 68h-94v41h99c21 141 99 237 252 237c47 0 101 -12 134 -27l-15 -44c-34 15 -84 27 -133 27c-116 0 -166 -88 -183 -193h214v-41h-219c-1 -19 -2 -38 -2 -59
c0 -15 0 -31 1 -46h220v-41h-217c16 -128 74 -194 199 -194c41 0 93 13 133 30z" />
    </font>
</defs>
</svg>
