<?xml version="1.0" standalone="no"?>
<!DOCTYPE svg PUBLIC "-//W3C//DTD SVG 1.1//EN" "http://www.w3.org/Graphics/SVG/1.1/DTD/svg11.dtd" >
<svg xmlns="http://www.w3.org/2000/svg" xmlns:xlink="http://www.w3.org/1999/xlink" version="1.1">
<metadata>
Created by FontForge 20161003 at Tue Jan 23 09:57:00 2018
 By www-data
Copyright Copr. 1999, Luc[as] de Groot &#60;www.FontFabrik.com&#62;. All rights reserved. Published by FontShop International &#60;www.fontfont.de&#62;
</metadata>
<defs>
<font id="TheSans-B4SemiLight" horiz-adv-x="550" >
  <font-face 
    font-family="TheSans"
    font-weight="500"
    font-stretch="normal"
    units-per-em="1000"
    panose-1="0 0 0 0 0 0 0 0 0 0"
    ascent="800"
    descent="-200"
    x-height="497"
    cap-height="675"
    bbox="-57 -257 1016 854"
    underline-thickness="59"
    underline-position="-221"
    stemh="57"
    stemv="70"
    unicode-range="U+0020-FB02"
  />
<missing-glyph 
 />
    <glyph glyph-name=".notdef" 
 />
    <glyph glyph-name="space" unicode=" " horiz-adv-x="218" 
 />
    <glyph glyph-name="exclam" unicode="!" horiz-adv-x="319" 
d="M214 701l-14 -541h-62l-14 541h90zM222 44c0 -29 -23 -52 -53 -52s-53 23 -53 52c0 30 23 53 53 53s53 -23 53 -53z" />
    <glyph glyph-name="quotedbl" unicode="&#x22;" horiz-adv-x="351" 
d="M295 698l-13 -220h-55l-13 220h81zM137 698l-14 -220h-54l-14 220h82z" />
    <glyph glyph-name="numbersign" unicode="#" 
d="M517 419h-97l-18 -181h91v-51h-96l-20 -187h-59l20 187h-154l-20 -187h-58l20 187h-93v51h98l18 181h-92v51h98l19 180h59l-20 -180h155l19 180h58l-19 -180h91v-51zM362 419h-154l-18 -181h154z" />
    <glyph glyph-name="dollar" unicode="$" 
d="M455 198c0 -88 -62 -162 -169 -178v-105h-57v101c-49 1 -89 5 -127 15l9 71c34 -13 89 -22 129 -22c77 0 137 32 137 107c0 139 -290 88 -290 281c0 83 65 152 162 165v97h58v-94c40 -1 79 -5 108 -12l-8 -68c-37 12 -76 18 -113 18c-99 0 -132 -50 -132 -97
c0 -134 293 -92 293 -279z" />
    <glyph glyph-name="percent" unicode="%" horiz-adv-x="746" 
d="M699 152c0 -93 -56 -161 -147 -161c-96 0 -137 56 -137 152c0 90 56 159 147 159c94 0 137 -54 137 -150zM644 633l-495 -653l-50 35l496 653zM331 509c0 -93 -56 -161 -147 -161c-96 0 -137 57 -137 152c0 91 55 159 147 159c94 0 137 -54 137 -150zM635 145
c0 70 -23 104 -79 104c-45 0 -77 -40 -77 -100c0 -70 24 -106 81 -106c44 0 75 42 75 102zM267 503c0 69 -23 104 -79 104c-46 0 -77 -41 -77 -100c0 -71 24 -106 80 -106c45 0 76 41 76 102z" />
    <glyph glyph-name="ampersand" unicode="&#x26;" horiz-adv-x="794" 
d="M733 41l-48 -58c-49 33 -104 74 -144 108c-66 -59 -155 -100 -266 -100c-139 0 -216 83 -216 194c0 93 60 155 145 221c-74 85 -97 130 -97 183c0 79 61 146 170 146c99 0 152 -56 152 -131c0 -67 -34 -126 -126 -197c61 -65 154 -154 236 -221v-1c46 63 78 152 71 258
h76c3 -115 -31 -220 -93 -298c53 -42 103 -79 140 -104zM355 596c0 44 -26 81 -86 81c-51 0 -87 -34 -87 -84c0 -35 20 -75 79 -143c62 50 94 91 94 146zM490 131c-87 72 -185 166 -244 231c-78 -62 -110 -110 -110 -167c0 -77 59 -140 154 -140c87 0 154 36 200 76z" />
    <glyph glyph-name="quoteright" unicode="&#x2019;" horiz-adv-x="234" 
d="M122 741c65 0 94 -113 -48 -246l-33 29c62 68 63 114 44 140c-25 32 -3 77 37 77z" />
    <glyph glyph-name="parenleft" unicode="(" horiz-adv-x="302" 
d="M278 -179l-55 -27c-121 190 -145 348 -145 490c0 140 31 313 146 495l52 -27c-83 -141 -126 -301 -126 -463c0 -172 41 -324 128 -468z" />
    <glyph glyph-name="parenright" unicode=")" horiz-adv-x="302" 
d="M231 289c0 -141 -32 -313 -147 -495l-52 27c83 140 126 301 126 463c0 171 -41 324 -127 467l55 28c120 -191 145 -348 145 -490z" />
    <glyph glyph-name="asterisk" unicode="*" horiz-adv-x="369" 
d="M322 537l-29 -51l-93 65l10 -113h-58l10 113l-93 -65l-28 50l103 48l-103 48l29 49l92 -64l-9 113h57l-9 -113l93 64l28 -49l-103 -47z" />
    <glyph glyph-name="plus" unicode="+" 
d="M507 266h-197v-207h-71v207h-196v63h196v206h71v-206h197v-63z" />
    <glyph glyph-name="comma" unicode="," horiz-adv-x="217" 
d="M106 99c65 0 94 -113 -48 -246l-33 29c62 68 64 114 44 140c-25 32 -3 77 37 77z" />
    <glyph glyph-name="hyphen" unicode="-" horiz-adv-x="328" 
d="M280 260h-232v62h232v-62z" />
    <glyph glyph-name="period" unicode="." horiz-adv-x="217" 
d="M163 46c0 -30 -24 -54 -55 -54c-30 0 -54 24 -54 54s24 54 54 54c31 0 55 -24 55 -54z" />
    <glyph glyph-name="slash" unicode="/" horiz-adv-x="428" 
d="M429 757l-350 -918h-71l350 918h71z" />
    <glyph glyph-name="zero" unicode="0" 
d="M497 332c0 -252 -115 -341 -229 -341c-141 0 -216 91 -216 338c0 227 97 330 229 330c122 0 216 -72 216 -327zM416 326c0 198 -46 270 -142 270c-80 0 -141 -69 -141 -261c0 -186 36 -280 141 -280c88 0 142 92 142 271z" />
    <glyph glyph-name="one" unicode="1" 
d="M492 0h-414v68h179v507l-166 -65l-14 70l195 70h62v-582h158v-68z" />
    <glyph glyph-name="two" unicode="2" 
d="M481 0h-420v60l161 159c130 128 154 174 154 242c0 73 -50 132 -138 132c-60 0 -117 -27 -150 -53l-21 64c48 31 111 55 182 55c137 0 207 -88 207 -186c0 -85 -29 -149 -159 -272l-137 -131v-1c40 1 115 2 213 2h108v-71z" />
    <glyph glyph-name="three" unicode="3" 
d="M469 196c0 -125 -102 -205 -266 -205c-43 0 -88 6 -122 16l10 69c35 -12 77 -20 122 -20c113 0 175 51 175 129c0 77 -61 125 -171 125c-35 0 -62 -1 -95 -4v61h20c147 0 232 41 232 128c0 63 -51 102 -128 102c-55 0 -102 -16 -145 -38l-8 67c46 19 99 33 164 33
c130 0 196 -67 196 -154c0 -78 -47 -131 -128 -154v-1c82 -6 144 -74 144 -154z" />
    <glyph glyph-name="four" unicode="4" 
d="M528 154h-115v-154h-74v154h-308l-6 59l287 437h101v-428h115v-68zM340 222v353h-1l-236 -356c65 3 194 3 237 3z" />
    <glyph glyph-name="five" unicode="5" 
d="M470 211c0 -132 -105 -220 -265 -220c-43 0 -79 4 -117 13v71c36 -12 78 -19 125 -19c114 0 177 57 177 145c0 86 -72 131 -178 131c-42 0 -84 -4 -109 -8v326h343v-72h-273v-187c19 1 45 2 61 2c156 0 236 -81 236 -182z" />
    <glyph glyph-name="six" unicode="6" 
d="M500 218c0 -135 -87 -227 -221 -227c-139 0 -221 102 -221 270c0 285 138 398 328 398c19 0 40 -1 52 -3v-66c-18 2 -35 4 -60 4c-142 0 -214 -84 -240 -228c-2 -10 -5 -30 -8 -52h1c33 59 96 93 169 93c129 0 200 -84 200 -189zM424 204c0 83 -47 140 -139 140
c-90 0 -143 -73 -143 -133c0 -86 50 -158 145 -158c87 0 137 62 137 151z" />
    <glyph glyph-name="seven" unicode="7" 
d="M493 585c-105 -193 -200 -411 -261 -585h-88c70 183 161 392 263 579c-21 -1 -161 -2 -260 -2h-89v73h435v-65z" />
    <glyph glyph-name="eight" unicode="8" 
d="M490 162c0 -103 -94 -171 -221 -171c-126 0 -210 63 -210 159c0 86 71 136 148 179c-83 40 -131 87 -131 164c0 94 81 166 204 166c122 0 193 -65 193 -156c0 -76 -61 -123 -131 -163c75 -38 148 -84 148 -178zM395 496c0 66 -50 102 -122 102c-74 0 -119 -44 -119 -99
c0 -59 39 -88 125 -130c63 35 116 71 116 127zM411 154c0 77 -67 112 -142 146c-68 -38 -131 -77 -131 -144c0 -60 50 -103 140 -103c73 0 133 36 133 101z" />
    <glyph glyph-name="nine" unicode="9" 
d="M488 389c0 -292 -142 -398 -330 -398c-24 0 -51 2 -76 7v69c27 -6 58 -10 88 -10c135 0 209 71 231 213c3 20 5 33 9 51h-1c-32 -50 -90 -81 -162 -81c-127 0 -197 83 -197 196c0 134 91 223 219 223c132 0 219 -81 219 -270zM404 439c0 91 -50 158 -142 158
c-86 0 -136 -66 -136 -148c0 -87 50 -144 135 -144c92 0 143 62 143 134z" />
    <glyph glyph-name="colon" unicode=":" horiz-adv-x="282" 
d="M211 343c0 -31 -24 -55 -54 -55s-55 24 -55 55c0 30 25 54 55 54s54 -24 54 -54zM211 46c0 -30 -24 -54 -54 -54s-55 24 -55 54s25 54 55 54s54 -24 54 -54z" />
    <glyph glyph-name="semicolon" unicode=";" horiz-adv-x="282" 
d="M211 343c0 -31 -24 -55 -54 -55s-55 24 -55 55c0 30 25 54 55 54s54 -24 54 -54zM156 99c65 0 94 -113 -48 -246l-33 29c62 68 63 114 44 140c-25 32 -3 77 37 77z" />
    <glyph glyph-name="less" unicode="&#x3c;" 
d="M438 76l-47 -52l-316 279l315 279l48 -48l-267 -230z" />
    <glyph glyph-name="equal" unicode="=" 
d="M493 347h-436v63h436v-63zM493 185h-436v62h436v-62z" />
    <glyph glyph-name="greater" unicode="&#x3e;" 
d="M475 304l-315 -280l-48 48l267 231l-267 228l47 51z" />
    <glyph glyph-name="question" unicode="?" horiz-adv-x="443" 
d="M378 518c0 -165 -208 -164 -151 -358h-73c-64 202 141 223 141 350c0 68 -80 123 -205 128l10 69c173 -6 278 -92 278 -189zM244 44c0 -29 -23 -52 -53 -52s-53 23 -53 52c0 30 23 53 53 53s53 -23 53 -53z" />
    <glyph glyph-name="at" unicode="@" horiz-adv-x="981" 
d="M884 403c0 -176 -97 -274 -221 -274c-86 0 -115 58 -106 114h-3c-14 -41 -79 -114 -153 -114c-66 0 -96 48 -96 131c0 147 75 269 223 269c45 0 90 -5 122 -12l-40 -219c-13 -74 12 -106 66 -106c79 0 139 72 139 207s-82 273 -295 273c-201 0 -361 -158 -361 -380
c0 -193 112 -316 318 -316c59 0 111 8 166 24l10 -62c-57 -18 -128 -26 -185 -26c-238 0 -380 144 -380 369c0 263 200 451 437 451c243 0 359 -157 359 -329zM577 468c-17 5 -40 7 -64 7c-100 0 -142 -121 -142 -200c0 -54 16 -82 48 -82c53 0 118 72 147 219z" />
    <glyph glyph-name="A" unicode="A" horiz-adv-x="611" 
d="M598 0h-87l-59 166h-300l-60 -166h-79l251 675h83zM431 227l-98 272c-12 33 -22 62 -30 91h-2c-8 -29 -17 -58 -29 -90l-99 -273h258z" />
    <glyph glyph-name="B" unicode="B" horiz-adv-x="566" 
d="M511 199c0 -73 -43 -202 -257 -202c-40 0 -105 2 -163 3v675c46 1 106 3 187 3c144 0 212 -62 212 -160c0 -74 -45 -135 -122 -160v-2c100 -15 143 -85 143 -157zM410 505c0 64 -31 111 -146 111c-33 0 -67 -1 -96 -2v-235c21 -1 38 -1 64 -1c120 0 178 47 178 127z
M431 197c0 95 -87 123 -198 123c-12 0 -49 0 -65 -1v-254c18 -3 48 -6 92 -6c120 0 171 59 171 138z" />
    <glyph glyph-name="C" unicode="C" horiz-adv-x="590" 
d="M544 30c-52 -22 -120 -37 -190 -37c-209 0 -305 130 -305 329c0 204 98 360 328 360c52 0 109 -8 158 -22l-13 -71c-50 17 -105 28 -158 28c-164 0 -232 -128 -232 -282c0 -174 77 -275 242 -275c52 0 113 15 155 36z" />
    <glyph glyph-name="D" unicode="D" horiz-adv-x="683" 
d="M633 344c0 -232 -157 -347 -378 -347c-68 0 -117 3 -164 3v675c52 0 125 3 195 3c219 0 347 -104 347 -334zM553 339c0 183 -92 277 -275 277c-38 0 -83 -2 -110 -3v-546c27 -4 68 -7 97 -7c170 0 288 87 288 279z" />
    <glyph glyph-name="E" unicode="E" horiz-adv-x="505" 
d="M431 0h-340v675h340v-62h-263v-234h250v-62h-250v-253h263v-64z" />
    <glyph glyph-name="F" unicode="F" horiz-adv-x="470" 
d="M429 612h-261v-236h247v-62h-247v-314h-77v675h338v-63z" />
    <glyph glyph-name="G" unicode="G" horiz-adv-x="685" 
d="M599 29c-68 -25 -149 -38 -220 -38c-200 0 -333 124 -333 334c0 205 135 359 358 359c64 0 126 -11 185 -29l-17 -70c-56 22 -116 34 -176 34c-142 0 -269 -92 -269 -284c0 -178 106 -278 264 -278c49 0 91 7 131 20v263h77v-311z" />
    <glyph glyph-name="H" unicode="H" horiz-adv-x="702" 
d="M611 0h-76v318h-367v-318h-77v675h77v-293h367v293h76v-675z" />
    <glyph glyph-name="I" unicode="I" horiz-adv-x="259" 
d="M168 0h-77v675h77v-675z" />
    <glyph glyph-name="J" unicode="J" horiz-adv-x="327" 
d="M236 171c0 -113 -45 -178 -163 -178c-26 0 -52 4 -72 8v69c19 -7 47 -12 72 -12c56 0 87 23 87 119v498h76v-504z" />
    <glyph glyph-name="K" unicode="K" horiz-adv-x="579" 
d="M561 0h-106l-287 339v-339h-77v675h77v-323l288 323h95l-300 -327z" />
    <glyph glyph-name="L" unicode="L" horiz-adv-x="425" 
d="M418 0h-327v675h77v-610h250v-65z" />
    <glyph glyph-name="M" unicode="M" horiz-adv-x="892" 
d="M837 0h-81l-60 416c-11 77 -17 132 -21 169h-2c-7 -28 -17 -66 -33 -113l-158 -472h-87l-150 442c-18 53 -32 100 -43 143h-1c-3 -54 -10 -108 -18 -177l-49 -408h-79l96 675h97l154 -456c12 -34 27 -84 39 -131h1c13 46 23 81 37 124l158 463h100z" />
    <glyph glyph-name="N" unicode="N" horiz-adv-x="711" 
d="M620 0h-102l-281 448c-30 48 -55 94 -77 138c3 -77 6 -262 6 -379v-207h-75v675h102l276 -438c29 -47 57 -97 83 -144c-4 90 -7 274 -7 397v185h75v-675z" />
    <glyph glyph-name="O" unicode="O" horiz-adv-x="705" 
d="M660 345c0 -226 -143 -354 -316 -354c-202 0 -299 135 -299 339c0 227 143 354 317 354c183 0 298 -122 298 -339zM578 333c0 181 -83 285 -226 285c-119 0 -225 -97 -225 -274c0 -169 73 -286 225 -286c118 0 226 96 226 275z" />
    <glyph glyph-name="P" unicode="P" horiz-adv-x="521" 
d="M485 486c0 -132 -111 -223 -259 -223c-20 0 -40 1 -58 3v-266h-77v675c48 2 101 3 159 3c152 0 235 -77 235 -192zM405 475c0 91 -53 140 -165 140c-29 0 -51 0 -72 -1v-283c18 -2 40 -4 61 -4c109 1 176 59 176 148z" />
    <glyph glyph-name="Q" unicode="Q" horiz-adv-x="704" 
d="M660 345c0 -226 -143 -354 -316 -354c-202 0 -299 135 -299 339c0 227 143 354 317 354c183 0 298 -122 298 -339zM704 -178c-169 -24 -240 53 -376 34v69c156 19 223 -54 376 -34v-69zM578 333c0 181 -83 285 -226 285c-119 0 -225 -97 -225 -274
c0 -169 73 -286 225 -286c118 0 226 96 226 275z" />
    <glyph glyph-name="R" unicode="R" horiz-adv-x="548" 
d="M516 0h-99l-237 312h-12v-312h-77v675c43 2 87 3 159 3c127 0 223 -44 223 -170c0 -120 -99 -186 -211 -191c20 -23 43 -48 60 -70zM393 497c0 88 -56 120 -160 120c-25 0 -45 -1 -65 -3v-243c11 -1 31 -2 61 -2c104 0 164 53 164 128z" />
    <glyph glyph-name="S" unicode="S" horiz-adv-x="504" 
d="M450 194c0 -118 -96 -203 -245 -203c-54 0 -105 8 -146 20l11 74c43 -17 91 -27 140 -27c85 0 159 35 159 127c0 160 -314 99 -314 312c0 107 81 187 229 187c39 0 84 -5 121 -13l-9 -69c-36 11 -78 18 -117 18c-98 0 -145 -45 -145 -114c0 -156 316 -100 316 -312z" />
    <glyph glyph-name="T" unicode="T" horiz-adv-x="519" 
d="M500 611h-203v-611h-76v611h-202v64h481v-64z" />
    <glyph glyph-name="U" unicode="U" horiz-adv-x="697" 
d="M606 256c0 -173 -91 -265 -266 -265c-209 0 -249 117 -249 233v451h77v-444c0 -97 32 -177 178 -177c124 0 185 52 185 196v425h75v-419z" />
    <glyph glyph-name="V" unicode="V" horiz-adv-x="613" 
d="M598 675l-253 -675h-84l-247 675h86l158 -449c15 -41 33 -94 46 -141h2c13 46 31 98 49 147l163 443h80z" />
    <glyph glyph-name="W" unicode="W" horiz-adv-x="952" 
d="M914 675l-180 -675h-95l-140 486c-11 38 -19 74 -25 108h-1c-6 -35 -14 -71 -24 -108l-137 -486h-93l-181 675h82l122 -466c12 -46 21 -85 28 -127h1c8 41 17 82 28 121l133 472h90l140 -478c10 -34 20 -76 27 -114h1c6 36 13 68 22 102l127 490h75z" />
    <glyph glyph-name="X" unicode="X" horiz-adv-x="587" 
d="M567 0h-95l-183 291l-181 -291h-88l224 349l-210 326h88l169 -267l166 267h86l-206 -322z" />
    <glyph glyph-name="Y" unicode="Y" horiz-adv-x="527" 
d="M515 675l-216 -430v-245h-76v244l-211 431h84l115 -241c19 -40 36 -80 52 -119h1c16 41 38 86 59 130l111 230h81z" />
    <glyph glyph-name="Z" unicode="Z" horiz-adv-x="540" 
d="M495 0h-449v56l299 465c21 31 39 58 60 88c-36 -1 -87 -2 -158 -2h-190v68h435v-57l-315 -486c-14 -23 -28 -42 -43 -65c22 3 88 3 177 3h184v-70z" />
    <glyph glyph-name="bracketleft" unicode="[" horiz-adv-x="319" 
d="M281 -196h-189v965h189v-57h-120v-850h120v-58z" />
    <glyph glyph-name="backslash" unicode="\" horiz-adv-x="427" 
d="M434 -161h-71l-350 918h71z" />
    <glyph glyph-name="bracketright" unicode="]" horiz-adv-x="319" 
d="M228 -196h-189v58h119v850h-119v57h189v-965z" />
    <glyph glyph-name="asciicircum" unicode="^" 
d="M469 375l-57 -30l-149 272l-143 -272l-52 28l166 302h62z" />
    <glyph glyph-name="underscore" unicode="_" 
d="M550 -250h-550v59h550v-59z" />
    <glyph glyph-name="quoteleft" unicode="&#x2018;" horiz-adv-x="234" 
d="M192 718c-62 -67 -64 -114 -44 -140c25 -32 3 -77 -37 -77c-65 0 -94 113 48 246z" />
    <glyph glyph-name="a" unicode="a" horiz-adv-x="520" 
d="M430 0h-74c0 38 0 76 5 105h-2c-24 -63 -88 -114 -173 -114c-79 0 -136 51 -136 132c0 102 107 170 302 170v36c0 75 -27 117 -113 117c-48 0 -106 -16 -146 -38l-17 62c48 21 111 36 175 36c138 0 177 -68 177 -161v-196c0 -49 0 -105 2 -149zM352 225v13
c-177 0 -227 -50 -227 -104c0 -47 32 -82 81 -82c88 0 146 87 146 173z" />
    <glyph glyph-name="b" unicode="b" horiz-adv-x="558" 
d="M512 271c0 -177 -100 -277 -256 -277c-67 0 -114 5 -165 19v717h75v-252c0 -28 -3 -66 -9 -91l2 -1c28 75 92 120 170 120c117 0 183 -81 183 -235zM433 265c0 112 -37 179 -119 179c-100 0 -148 -116 -148 -204v-174c29 -9 59 -13 97 -13c103 0 170 62 170 212z" />
    <glyph glyph-name="c" unicode="c" horiz-adv-x="440" 
d="M411 21c-43 -18 -99 -28 -152 -28c-111 0 -215 50 -215 238c0 163 82 273 237 273c48 0 92 -8 127 -22l-15 -63c-33 13 -77 24 -121 24c-96 0 -149 -83 -149 -199c0 -102 32 -187 151 -187c45 0 87 9 123 26z" />
    <glyph glyph-name="d" unicode="d" horiz-adv-x="557" 
d="M465 0h-74c0 30 3 78 9 108l-2 1c-28 -71 -91 -118 -171 -118c-123 0 -183 90 -183 235c0 177 100 277 255 277c29 0 58 -2 92 -5v232h74v-730zM391 257v175c-34 8 -66 12 -98 12c-102 0 -170 -62 -170 -212c0 -112 38 -179 120 -179c99 0 148 116 148 204z" />
    <glyph glyph-name="e" unicode="e" horiz-adv-x="505" 
d="M456 301c0 -9 0 -22 -2 -40h-332c-5 -146 54 -207 165 -207c48 0 98 10 141 29l13 -61c-49 -20 -107 -31 -169 -31c-148 0 -228 81 -228 255c0 149 80 260 218 260c137 0 194 -95 194 -205zM378 316c2 81 -44 133 -120 133c-70 0 -120 -51 -132 -133h252z" />
    <glyph glyph-name="f" unicode="f" horiz-adv-x="348" 
d="M385 726l-7 -63c-25 8 -52 11 -78 11c-76 0 -110 -44 -110 -140v-37h147v-59h-147v-438h-75v438h-108v59h108v35c0 139 69 203 188 203c28 0 55 -3 82 -9z" />
    <glyph glyph-name="g" unicode="g" horiz-adv-x="539" 
d="M509 -72c0 -105 -107 -185 -259 -185c-126 0 -208 53 -208 148c0 61 40 110 87 137c-31 12 -50 40 -50 73c0 34 21 65 54 82c-46 27 -73 72 -73 138c0 98 74 185 207 185c26 0 42 -3 67 -9h169v-59h-89c29 -23 46 -60 46 -103c0 -101 -68 -181 -208 -181
c-22 0 -40 2 -58 8c-24 -11 -37 -29 -37 -46c0 -30 28 -40 90 -42l95 -4c108 -4 167 -55 167 -142zM385 328c0 74 -44 120 -122 120c-81 0 -128 -52 -128 -121c0 -75 45 -117 125 -117c77 0 125 43 125 118zM432 -82c0 53 -35 85 -111 88l-100 4h-32
c-43 -28 -71 -64 -71 -106c0 -64 62 -101 145 -101c109 0 169 49 169 115z" />
    <glyph glyph-name="h" unicode="h" horiz-adv-x="577" 
d="M486 0h-75v321c0 78 -21 123 -93 123c-89 0 -152 -88 -152 -206v-238h-75v730h75v-244c0 -33 -2 -74 -8 -99l2 -1c29 73 91 120 177 120c114 0 149 -71 149 -160v-346z" />
    <glyph glyph-name="i" unicode="i" horiz-adv-x="257" 
d="M181 657c0 -28 -24 -51 -52 -51c-29 0 -52 22 -52 51c0 28 23 51 52 51c28 0 52 -22 52 -51zM166 0h-75v497h75v-497z" />
    <glyph glyph-name="j" unicode="j" horiz-adv-x="265" 
d="M188 657c0 -28 -23 -51 -52 -51c-28 0 -51 22 -51 51c0 28 23 51 51 51c29 0 52 -22 52 -51zM174 -63c0 -132 -39 -193 -164 -193c-21 0 -48 3 -67 9l7 66c19 -7 42 -12 64 -12c67 0 85 28 85 125v565h75v-560z" />
    <glyph glyph-name="k" unicode="k" horiz-adv-x="482" 
d="M459 0h-97l-196 261v-261h-75v730h75v-456l187 223h91l-198 -226z" />
    <glyph glyph-name="l" unicode="l" horiz-adv-x="257" 
d="M166 0h-75v730h75v-730z" />
    <glyph glyph-name="m" unicode="m" horiz-adv-x="884" 
d="M793 0h-75v320c0 75 -18 124 -90 124c-76 0 -149 -79 -149 -208v-236h-74v321c0 68 -14 123 -90 123c-82 0 -149 -86 -149 -208v-236h-75v497h74c0 -33 -2 -80 -8 -111l2 -1c28 73 93 121 175 121c113 0 137 -81 139 -119c18 47 72 119 173 119c93 0 147 -50 147 -162
v-344z" />
    <glyph glyph-name="n" unicode="n" horiz-adv-x="577" 
d="M486 0h-75v321c0 78 -21 123 -93 123c-89 0 -152 -88 -152 -206v-238h-75v497h74c0 -33 -3 -81 -8 -111l2 -1c28 73 91 121 178 121c114 0 149 -71 149 -160v-346z" />
    <glyph glyph-name="o" unicode="o" horiz-adv-x="542" 
d="M499 257c0 -148 -91 -266 -238 -266c-133 0 -219 81 -219 255c0 142 88 260 237 260c121 0 220 -67 220 -249zM421 252c0 120 -50 192 -149 192c-78 0 -152 -59 -152 -192c0 -127 55 -197 152 -197c78 0 149 60 149 197z" />
    <glyph glyph-name="p" unicode="p" horiz-adv-x="558" 
d="M512 271c0 -178 -97 -277 -254 -277c-34 0 -59 1 -92 7v-250h-75v746h74c0 -30 -2 -79 -8 -108l2 -1c28 72 91 118 170 118c117 0 183 -81 183 -235zM433 265c0 112 -37 179 -119 179c-100 0 -148 -116 -148 -204v-174c29 -9 60 -13 97 -13c103 0 170 62 170 212z" />
    <glyph glyph-name="q" unicode="q" horiz-adv-x="558" 
d="M467 -249h-75v271c0 21 1 56 7 86h-2c-27 -71 -90 -117 -167 -117c-117 0 -184 79 -184 234c0 178 99 279 259 279c55 0 112 -5 162 -14v-739zM392 258v175c-33 8 -65 12 -97 12c-103 0 -170 -63 -170 -213c0 -112 37 -179 119 -179c99 0 148 116 148 205z" />
    <glyph glyph-name="r" unicode="r" horiz-adv-x="354" 
d="M331 505l-3 -74c-110 19 -162 -65 -162 -232v-199h-75v497h74c0 -33 -4 -82 -11 -125l1 -1c20 73 72 146 176 134z" />
    <glyph glyph-name="s" unicode="s" horiz-adv-x="428" 
d="M374 148c0 -88 -77 -157 -206 -157c-38 0 -80 4 -111 13l9 69c32 -12 74 -19 112 -19c69 0 119 32 119 84c0 121 -243 45 -243 222c0 83 65 146 192 146c31 0 69 -5 98 -11l-7 -63c-30 9 -65 15 -99 15c-72 0 -107 -30 -107 -79c0 -120 243 -49 243 -220z" />
    <glyph glyph-name="t" unicode="t" horiz-adv-x="370" 
d="M336 3c-28 -6 -66 -11 -97 -11c-100 0 -129 44 -129 147v299h-108v59h108v165l75 21v-186h146v-59h-146v-268c0 -89 16 -112 75 -112c25 0 48 3 67 8z" />
    <glyph glyph-name="u" unicode="u" horiz-adv-x="577" 
d="M486 0h-74c0 33 3 81 8 111l-2 1c-28 -73 -91 -121 -178 -121c-114 0 -149 71 -149 160v346h75v-321c0 -78 21 -123 93 -123c89 0 152 88 152 206v238h75v-497z" />
    <glyph glyph-name="v" unicode="v" horiz-adv-x="478" 
d="M468 497l-192 -497h-78l-188 497h85l116 -324c11 -31 19 -59 28 -88h1c8 27 17 57 27 84l119 328h82z" />
    <glyph glyph-name="w" unicode="w" horiz-adv-x="792" 
d="M773 497l-162 -497h-87l-109 321c-11 31 -19 62 -28 95h-1c-10 -43 -23 -83 -36 -125l-91 -291h-87l-154 497h84l85 -296c13 -44 26 -88 34 -122h1c10 40 21 82 34 122l95 296h85l96 -295c20 -62 28 -91 36 -124h2c9 39 19 72 34 122l89 297h80z" />
    <glyph glyph-name="x" unicode="x" horiz-adv-x="515" 
d="M490 0h-99l-137 200l-137 -200h-93l188 249l-178 248h93l133 -196l136 196h86l-178 -245z" />
    <glyph glyph-name="y" unicode="y" horiz-adv-x="471" 
d="M461 497l-206 -544c-59 -156 -118 -210 -229 -210c-16 0 -38 3 -53 6l8 67c16 -4 40 -7 59 -7c56 0 99 27 139 133l22 58l-190 497h86l104 -285c16 -45 27 -81 38 -118h1c9 32 30 94 50 151l89 252h82z" />
    <glyph glyph-name="z" unicode="z" horiz-adv-x="446" 
d="M393 0h-344v53l253 379c-32 -1 -85 -2 -141 -2h-107v67h334v-52l-251 -378c30 1 97 2 144 2h112v-69z" />
    <glyph glyph-name="braceleft" unicode="{" horiz-adv-x="333" 
d="M300 -196h-17c-107 0 -145 63 -145 184v191c0 76 -27 104 -108 109v60c83 5 108 28 108 108v130c0 102 33 183 145 183h17v-57c-70 0 -93 -30 -93 -123v-128c0 -82 -30 -130 -93 -142v-1c62 -10 93 -62 93 -144v-189c0 -93 23 -123 93 -123v-58z" />
    <glyph glyph-name="bar" unicode="|" horiz-adv-x="284" 
d="M171 -249h-59v1000h59v-1000z" />
    <glyph glyph-name="braceright" unicode="}" horiz-adv-x="329" 
d="M310 288c-81 -5 -108 -33 -108 -109v-191c0 -121 -39 -184 -146 -184h-17v58c71 0 94 30 94 123v189c0 82 31 134 93 144v1c-64 9 -93 60 -93 137v133c0 93 -23 123 -94 123v57h17c112 0 146 -81 146 -183v-125c0 -85 24 -108 108 -113v-60z" />
    <glyph glyph-name="asciitilde" unicode="~" 
d="M493 564c0 -83 -49 -142 -127 -142c-110 0 -110 113 -185 113c-45 0 -65 -39 -66 -92h-56v6c0 84 49 142 127 142c110 0 110 -113 185 -113c45 0 65 39 66 93h56v-7z" />
    <glyph glyph-name="exclamdown" unicode="&#xa1;" horiz-adv-x="319" 
d="M204 453c0 -30 -24 -53 -54 -53s-53 23 -53 53c0 29 23 52 53 52s54 -23 54 -52zM195 -204h-90l14 541h62z" />
    <glyph glyph-name="cent" unicode="&#xa2;" 
d="M468 139c-39 -19 -81 -31 -126 -35v-104h-60v104c-128 8 -200 84 -200 226c0 127 75 210 200 229v91h60v-89c37 -1 80 -9 118 -24l-14 -64c-34 16 -76 27 -120 27c-102 0 -166 -56 -166 -167c0 -95 43 -165 163 -165c45 0 91 12 126 32z" />
    <glyph glyph-name="sterling" unicode="&#xa3;" 
d="M477 0h-402v52c64 56 99 103 99 160c0 26 -3 53 -8 80h-110v59h102c-7 40 -13 81 -13 120c0 134 73 188 188 188c33 0 82 -6 118 -17l-17 -64c-32 11 -72 20 -108 20c-71 0 -106 -42 -106 -118c0 -42 8 -86 15 -129h162v-59h-155c5 -25 7 -50 7 -74
c0 -64 -27 -106 -82 -154c21 1 51 2 83 2h227v-66z" />
    <glyph glyph-name="fraction" unicode="&#x2044;" horiz-adv-x="412" 
d="M485 659l-474 -683l-53 38l474 683z" />
    <glyph glyph-name="yen" unicode="&#xa5;" 
d="M512 650l-182 -363h150v-53h-169v-75h169v-53h-169v-106h-76v106h-168v53h168v75h-168v53h150l-178 363h84l102 -215c20 -42 35 -82 49 -119h1c16 42 36 86 56 127l100 207h81z" />
    <glyph glyph-name="florin" unicode="&#x192;" 
d="M516 688l-12 -64c-30 10 -64 16 -90 16c-67 0 -99 -38 -108 -124l-16 -165h153v-59h-158l-24 -257c-13 -137 -81 -195 -196 -195c-28 0 -61 5 -91 14l12 63c30 -9 64 -15 91 -15c66 0 99 37 107 123l25 267h-115v59h121l16 156c14 136 80 194 195 194c28 0 61 -5 90 -13z
" />
    <glyph glyph-name="section" unicode="&#xa7;" horiz-adv-x="516" 
d="M424 230c0 -54 -27 -102 -79 -140c23 -31 39 -65 39 -104c0 -78 -58 -150 -175 -150c-21 0 -50 4 -77 11l7 64c30 -9 50 -13 74 -13c59 0 93 35 93 83c0 112 -228 200 -228 363c0 54 26 101 79 141c-24 32 -40 65 -40 104c0 80 54 146 168 146c23 0 51 -3 73 -8l-7 -64
c-25 8 -44 11 -68 11c-58 0 -87 -30 -87 -79c0 -110 228 -203 228 -365zM352 220c0 81 -85 145 -155 221c-34 -24 -47 -57 -47 -87c0 -79 81 -143 155 -220c33 23 47 56 47 86z" />
    <glyph glyph-name="currency" unicode="&#xa4;" 
d="M496 106l-54 -41l-81 110c-27 -18 -60 -27 -94 -27c-28 0 -53 5 -73 15l-73 -98l-54 40l74 92c-26 30 -41 73 -41 133c0 51 17 95 46 126l-79 98l53 40l76 -103c25 14 54 20 85 20c27 0 59 -4 86 -19l77 102l52 -41l-80 -99c20 -26 34 -65 34 -119
c0 -49 -15 -92 -41 -122zM382 334c0 68 -30 120 -110 120c-59 0 -104 -47 -104 -122c0 -70 28 -127 109 -127c55 0 105 49 105 129z" />
    <glyph glyph-name="quotesingle" unicode="'" horiz-adv-x="192" 
d="M137 698l-14 -220h-54l-14 220h82z" />
    <glyph glyph-name="quotedblleft" unicode="&#x201c;" horiz-adv-x="413" 
d="M370 718c-62 -67 -63 -114 -43 -140c24 -32 3 -77 -37 -77c-66 0 -95 113 47 246zM192 718c-62 -67 -64 -114 -44 -140c25 -32 3 -77 -37 -77c-65 0 -94 113 48 246z" />
    <glyph glyph-name="guillemotleft" unicode="&#xab;" horiz-adv-x="499" 
d="M421 153l-56 -32l-124 172l125 175l55 -31l-103 -143zM231 152l-57 -32l-115 173l116 177l55 -31l-95 -145z" />
    <glyph glyph-name="guilsinglleft" unicode="&#x2039;" horiz-adv-x="313" 
d="M234 154l-55 -33l-120 172l121 176l54 -32l-100 -143z" />
    <glyph glyph-name="guilsinglright" unicode="&#x203a;" horiz-adv-x="313" 
d="M255 296l-122 -175l-54 32l100 142l-99 141l56 33z" />
    <glyph glyph-name="fi" unicode="&#xfb01;" horiz-adv-x="588" 
d="M497 0h-75v438h-232v-438h-75v438h-108v59h108v24c0 137 72 214 226 214c48 0 94 -7 135 -18l-15 -63c-37 12 -85 20 -121 20c-106 0 -150 -53 -150 -143v-34h307v-497z" />
    <glyph glyph-name="fl" unicode="&#xfb02;" horiz-adv-x="588" 
d="M497 0h-75v667c-31 5 -62 8 -92 8c-96 0 -140 -38 -140 -126v-52h145v-59h-145v-438h-75v438h-108v59h108v61c0 110 71 177 222 177c51 0 108 -5 160 -13v-722z" />
    <glyph glyph-name="endash" unicode="&#x2013;" 
d="M550 265h-550v65h550v-65z" />
    <glyph glyph-name="dagger" unicode="&#x2020;" horiz-adv-x="445" 
d="M394 566h-142l15 -101l-17 -249h-55l-17 249l15 101h-142v59h142l-15 137h89l-15 -137h142v-59z" />
    <glyph glyph-name="daggerdbl" unicode="&#x2021;" horiz-adv-x="445" 
d="M394 299h-142l15 -133h-89l15 133h-142v59h142l-15 106l15 107h-142v58h142l-15 133h89l-15 -133h142v-58h-142l15 -107l-15 -106h142v-59z" />
    <glyph glyph-name="periodcentered" unicode="&#xb7;" horiz-adv-x="220" 
d="M167 297c0 -32 -25 -57 -57 -57s-57 25 -57 57s25 57 57 57s57 -25 57 -57z" />
    <glyph glyph-name="paragraph" unicode="&#xb6;" horiz-adv-x="569" 
d="M504 618h-72v-714h-145v57h75v714h142v-57zM287 254c-147 -1 -217 97 -217 213c0 118 87 208 217 208v-421z" />
    <glyph glyph-name="bullet" unicode="&#x2022;" horiz-adv-x="419" 
d="M320 297c0 -61 -50 -110 -110 -110c-61 0 -110 49 -110 110s49 110 110 110c60 0 110 -49 110 -110z" />
    <glyph glyph-name="quotesinglbase" unicode="&#x201a;" horiz-adv-x="234" 
d="M122 99c65 0 94 -113 -48 -246l-33 29c62 68 63 114 44 140c-25 32 -3 77 37 77z" />
    <glyph glyph-name="quotedblbase" unicode="&#x201e;" horiz-adv-x="413" 
d="M300 99c66 0 95 -113 -47 -246l-34 29c63 68 64 114 44 140c-24 32 -3 77 37 77zM122 99c65 0 94 -113 -48 -246l-33 29c62 68 63 114 44 140c-25 32 -3 77 37 77z" />
    <glyph glyph-name="quotedblright" unicode="&#x201d;" horiz-adv-x="413" 
d="M300 741c66 0 95 -113 -47 -246l-34 29c63 68 64 114 44 140c-24 32 -3 77 37 77zM122 741c65 0 94 -113 -48 -246l-33 29c62 68 63 114 44 140c-25 32 -3 77 37 77z" />
    <glyph glyph-name="guillemotright" unicode="&#xbb;" horiz-adv-x="499" 
d="M440 296l-117 -176l-55 31l96 144l-95 143l57 32zM258 296l-126 -175l-54 31l103 143l-102 141l56 32z" />
    <glyph glyph-name="ellipsis" unicode="&#x2026;" horiz-adv-x="642" 
d="M576 45c0 -29 -24 -53 -53 -53c-30 0 -54 24 -54 53c0 30 24 53 54 53c29 0 53 -23 53 -53zM368 45c0 -29 -23 -53 -53 -53c-29 0 -53 24 -53 53c0 30 24 53 53 53c30 0 53 -23 53 -53zM161 45c0 -29 -24 -53 -54 -53c-29 0 -53 24 -53 53c0 30 24 53 53 53
c30 0 54 -23 54 -53z" />
    <glyph glyph-name="perthousand" unicode="&#x2030;" horiz-adv-x="1015" 
d="M893 143c0 64 -20 97 -70 97c-45 0 -72 -39 -72 -98c0 -66 20 -99 70 -99c45 0 72 39 72 100zM955 150c0 -101 -62 -159 -138 -159s-129 42 -129 144c0 100 64 157 139 157c74 0 128 -39 128 -142zM578 143c0 64 -20 97 -70 97c-45 0 -72 -39 -72 -98
c0 -66 20 -99 70 -99c45 0 72 39 72 100zM640 150c0 -101 -63 -159 -138 -159c-77 0 -129 42 -129 144c0 100 63 157 138 157s129 -39 129 -142zM634 628l-531 -643l-47 36l530 644zM255 509c0 65 -20 98 -70 98c-45 0 -72 -39 -72 -99c0 -65 20 -98 70 -98
c45 0 72 39 72 99zM317 516c0 -101 -63 -158 -138 -158c-77 0 -129 42 -129 144c0 99 63 157 138 157s129 -40 129 -143z" />
    <glyph glyph-name="questiondown" unicode="&#xbf;" horiz-adv-x="443" 
d="M306 453c0 -30 -24 -53 -54 -53s-53 23 -53 53c0 29 23 52 53 52s54 -23 54 -52zM353 -141l-10 -69c-172 6 -278 92 -278 189c0 165 208 164 151 358h74c63 -202 -142 -223 -142 -350c0 -68 80 -123 205 -128z" />
    <glyph glyph-name="grave" unicode="`" horiz-adv-x="368" 
d="M272 614l-35 -39l-138 116l44 49z" />
    <glyph glyph-name="acute" unicode="&#xb4;" horiz-adv-x="387" 
d="M273 691l-138 -116l-35 39l128 126z" />
    <glyph glyph-name="circumflex" unicode="&#x2c6;" horiz-adv-x="436" 
d="M349 612l-36 -37l-98 86l-99 -86l-34 35l134 130z" />
    <glyph glyph-name="tilde" unicode="&#x2dc;" horiz-adv-x="507" 
d="M416 673c-25 -46 -61 -73 -104 -73c-65 0 -86 56 -129 56c-22 0 -43 -16 -61 -47l-39 31c25 46 61 73 105 73c64 0 85 -56 128 -56c22 0 44 16 62 47z" />
    <glyph glyph-name="macron" unicode="&#xaf;" horiz-adv-x="395" 
d="M320 623h-245v57h245v-57z" />
    <glyph glyph-name="breve" unicode="&#x2d8;" horiz-adv-x="411" 
d="M326 718c0 -67 -38 -127 -122 -127c-85 0 -119 61 -119 127h53c0 -37 23 -69 67 -69c41 0 67 25 67 69h54z" />
    <glyph glyph-name="dotaccent" unicode="&#x2d9;" horiz-adv-x="282" 
d="M191 657c0 -28 -23 -51 -51 -51c-29 0 -52 22 -52 51c0 28 23 51 52 51c28 0 51 -22 51 -51z" />
    <glyph glyph-name="dieresis" unicode="&#xa8;" horiz-adv-x="546" 
d="M407 657c0 -27 -22 -48 -48 -48c-27 0 -48 21 -48 48c0 26 21 47 48 47c26 0 48 -21 48 -47zM219 657c0 -27 -21 -48 -48 -48s-48 21 -48 48c0 26 21 47 48 47s48 -21 48 -47z" />
    <glyph glyph-name="ring" unicode="&#x2da;" horiz-adv-x="390" 
d="M303 654c0 -57 -49 -105 -108 -105c-60 0 -108 44 -108 105c0 60 49 105 108 105c61 0 108 -45 108 -105zM251 654c0 32 -24 58 -56 58s-56 -26 -56 -58s24 -58 56 -58s56 26 56 58z" />
    <glyph glyph-name="cedilla" unicode="&#xb8;" horiz-adv-x="400" 
d="M259 -41c51 -65 35 -127 -22 -194h-63c54 67 66 109 19 166z" />
    <glyph glyph-name="hungarumlaut" unicode="&#x2dd;" horiz-adv-x="488" 
d="M420 695l-132 -120l-38 34l122 129zM245 701l-124 -126l-38 34l113 134z" />
    <glyph glyph-name="ogonek" unicode="&#x2db;" horiz-adv-x="279" 
d="M227 -149c-26 -34 -66 -58 -110 -58c-54 0 -84 29 -84 75c0 41 28 93 85 132h84c-67 -38 -91 -83 -91 -112c0 -22 13 -33 31 -33s36 12 50 29z" />
    <glyph glyph-name="caron" unicode="&#x2c7;" horiz-adv-x="436" 
d="M346 704l-134 -129l-132 128l36 37l98 -86l98 86z" />
    <glyph glyph-name="emdash" unicode="&#x2014;" horiz-adv-x="1000" 
d="M879 265h-758v65h758v-65z" />
    <glyph glyph-name="AE" unicode="&#xc6;" horiz-adv-x="779" 
d="M704 0h-342v169h-235l-91 -169h-80l367 675h371v-62h-257v-234h247v-62h-247v-253h267v-64zM362 230v380h-3c-16 -34 -33 -70 -68 -134l-134 -246h205z" />
    <glyph glyph-name="ordfeminine" unicode="&#xaa;" horiz-adv-x="383" 
d="M311 351h-65c0 15 2 36 6 54l-2 1c-12 -32 -56 -63 -101 -63c-67 0 -97 35 -97 83c0 71 70 119 195 119v19c0 27 -8 65 -67 65c-38 0 -75 -10 -104 -26l-5 59c32 13 75 20 118 20c94 0 122 -53 122 -109c0 -57 -1 -109 -1 -135c0 -53 1 -74 1 -87zM339 225h-279v60h279
v-60zM247 491v9c-94 0 -131 -25 -131 -64c0 -24 17 -40 46 -40c61 0 85 66 85 95z" />
    <glyph glyph-name="Lslash" unicode="&#x141;" horiz-adv-x="442" 
d="M436 0h-328v290l-98 -35l-15 56l113 40v324h77v-299l123 43l15 -57l-138 -48v-249h251v-65z" />
    <glyph glyph-name="Oslash" unicode="&#xd8;" horiz-adv-x="705" 
d="M660 342c0 -226 -138 -351 -320 -351c-31 0 -58 3 -84 10l-38 -104l-58 20l38 104c-107 52 -153 168 -153 311c0 225 142 352 316 352c27 0 54 -3 78 -8l36 97l58 -20l-36 -96c103 -45 163 -152 163 -315zM580 332c0 118 -37 212 -109 254l-192 -519c24 -8 49 -10 73 -10
c130 3 228 98 228 275zM416 610c-23 5 -45 8 -73 7c-117 -4 -218 -100 -218 -276c0 -111 28 -201 99 -247z" />
    <glyph glyph-name="OE" unicode="&#x152;" horiz-adv-x="864" 
d="M790 0h-336c-37 -6 -73 -9 -110 -9c-202 0 -299 135 -299 339c0 227 143 354 315 354c36 0 69 -3 100 -9h330v-62h-263v-234h250v-62h-250v-253h263v-64zM451 71v533c-31 9 -61 14 -97 14c-121 0 -227 -97 -227 -274c0 -169 73 -286 225 -286c31 0 68 5 99 13z" />
    <glyph glyph-name="ordmasculine" unicode="&#xba;" horiz-adv-x="417" 
d="M361 519c0 -105 -67 -175 -163 -175c-88 0 -147 47 -147 171c0 98 66 168 159 168c70 0 151 -32 151 -164zM347 225h-281v60h281v-60zM291 519c0 53 -19 107 -84 107c-43 0 -86 -31 -86 -111c0 -54 16 -112 82 -112c51 0 88 35 88 116z" />
    <glyph glyph-name="ae" unicode="&#xe6;" horiz-adv-x="809" 
d="M761 301c0 -9 -1 -22 -2 -40h-332c-5 -146 53 -207 164 -207c49 0 99 10 141 29l13 -61c-48 -20 -107 -31 -169 -31c-114 0 -176 53 -198 119h-1c-28 -60 -95 -119 -190 -119c-80 0 -137 51 -137 132c0 102 107 170 302 170v36c0 75 -27 117 -113 117
c-48 0 -106 -16 -146 -38l-17 62c48 21 111 36 175 36c75 0 130 -24 153 -84h1c30 47 87 84 161 84c138 0 195 -95 195 -205zM682 316c2 81 -44 133 -120 133c-69 0 -119 -51 -132 -133h252zM352 225v13c-177 0 -227 -50 -227 -104c0 -47 32 -82 81 -82c88 0 146 87 146 173
z" />
    <glyph glyph-name="dotlessi" unicode="&#x131;" horiz-adv-x="257" 
d="M166 0h-75v497h75v-497z" />
    <glyph glyph-name="lslash" unicode="&#x142;" horiz-adv-x="292" 
d="M296 354l-113 -39v-315h-74v291l-100 -35l-13 57l113 39v378h74v-354l100 35z" />
    <glyph glyph-name="oslash" unicode="&#xf8;" horiz-adv-x="542" 
d="M499 257c0 -148 -92 -266 -237 -266c-24 0 -47 4 -67 10l-40 -104l-52 17l41 106c-72 42 -102 128 -102 226c0 143 88 260 237 260c16 0 33 -2 49 -5l36 94l52 -17l-36 -93c67 -31 119 -100 119 -228zM425 252c0 82 -23 140 -70 170l-137 -360c17 -7 37 -10 59 -10
c76 2 148 62 148 200zM305 442c-13 2 -26 4 -41 3c-70 -2 -148 -51 -148 -193c0 -70 18 -130 55 -162z" />
    <glyph glyph-name="oe" unicode="&#x153;" horiz-adv-x="878" 
d="M829 301c0 -9 -1 -22 -2 -40h-332c-5 -146 54 -207 164 -207c49 0 99 10 142 29l12 -61c-48 -20 -107 -31 -168 -31c-103 0 -164 43 -195 110c-35 -63 -96 -110 -189 -110c-133 0 -219 80 -219 255c0 142 87 260 237 260c75 0 146 -32 182 -102c34 60 92 102 174 102
c137 0 194 -95 194 -205zM751 316c2 81 -44 133 -120 133c-70 0 -121 -51 -133 -133h253zM421 252c0 120 -50 192 -149 192c-78 0 -152 -59 -152 -192c0 -127 55 -197 152 -197c78 0 149 60 149 197z" />
    <glyph glyph-name="germandbls" unicode="&#xdf;" horiz-adv-x="587" 
d="M543 146c0 -89 -74 -155 -197 -155c-36 0 -71 4 -96 10l7 68c27 -10 60 -16 91 -16c83 0 118 39 118 83c0 115 -204 92 -204 251c0 120 143 114 143 210c0 53 -42 78 -102 78c-87 0 -137 -47 -137 -168v-507h-75v502c0 172 96 233 217 233c113 0 174 -56 174 -131
c0 -137 -144 -119 -144 -210c0 -110 205 -93 205 -248z" />
    <glyph glyph-name="eth" unicode="&#xf0;" horiz-adv-x="543" 
d="M497 271c0 -190 -101 -280 -233 -280s-222 82 -222 255c0 143 87 259 233 259c46 0 94 -15 115 -51c-11 23 -26 45 -32 55c-17 31 -38 60 -68 93l-106 -48l-32 42l98 44c-23 22 -51 44 -84 69l77 33c27 -22 53 -46 78 -71l104 46l33 -42l-101 -44
c88 -104 140 -229 140 -360zM420 261c0 111 -50 183 -149 183c-78 0 -151 -60 -151 -193c0 -125 59 -196 155 -196c79 0 145 58 145 206z" />
    <glyph glyph-name="Scaron" unicode="&#x160;" horiz-adv-x="504" 
d="M417 811l-154 -84l-157 82l24 45l135 -64l130 64zM450 194c0 -118 -96 -203 -245 -203c-54 0 -105 8 -146 20l11 74c43 -17 91 -27 140 -27c85 0 159 35 159 127c0 160 -314 99 -314 312c0 107 81 187 229 187c39 0 84 -5 121 -13l-9 -69c-36 11 -78 18 -117 18
c-98 0 -145 -45 -145 -114c0 -156 316 -100 316 -312z" />
    <glyph glyph-name="scaron" unicode="&#x161;" horiz-adv-x="428" 
d="M374 148c0 -88 -77 -157 -206 -157c-38 0 -80 4 -111 13l9 69c32 -12 74 -19 112 -19c69 0 119 32 119 84c0 121 -243 45 -243 222c0 83 65 146 192 146c31 0 69 -5 98 -11l-7 -63c-30 9 -65 15 -99 15c-72 0 -107 -30 -107 -79c0 -120 243 -49 243 -220zM352 704
l-134 -129l-132 128l36 37l98 -86l98 86z" />
    <glyph glyph-name="Yacute" unicode="&#xdd;" horiz-adv-x="527" 
d="M411 786l-180 -57l-16 44l172 74zM515 675l-216 -430v-245h-76v244l-211 431h84l115 -241c19 -40 36 -80 52 -119h1c16 41 38 86 59 130l111 230h81z" />
    <glyph glyph-name="yacute" unicode="&#xfd;" horiz-adv-x="471" 
d="M461 497l-206 -544c-59 -156 -118 -210 -229 -210c-16 0 -38 3 -53 6l8 67c16 -4 40 -7 59 -7c56 0 99 27 139 133l22 58l-190 497h86l104 -285c16 -45 27 -81 38 -118h1c9 32 30 94 50 151l89 252h82zM365 691l-138 -116l-35 39l128 126z" />
    <glyph glyph-name="HT" horiz-adv-x="705" 
 />
    <glyph glyph-name="Thorn" unicode="&#xde;" horiz-adv-x="525" 
d="M505 368c0 -140 -115 -229 -273 -229c-24 0 -44 1 -64 3v-142h-77v675h77v-105c29 1 55 2 87 2c156 0 250 -71 250 -204zM426 361c0 90 -54 148 -187 148c-23 0 -48 -1 -71 -5v-298c21 -2 45 -4 73 -4c116 0 185 57 185 159z" />
    <glyph glyph-name="thorn" unicode="&#xfe;" horiz-adv-x="558" 
d="M512 271c0 -178 -97 -277 -254 -277c-34 0 -59 1 -92 7v-250h-75v979h75v-224c0 -38 -2 -89 -7 -114l2 -1c28 69 89 115 168 115c117 0 183 -81 183 -235zM433 265c0 112 -37 179 -119 179c-100 0 -148 -116 -148 -204v-174c29 -9 60 -13 97 -13c103 0 170 62 170 212z
" />
    <glyph glyph-name="Zcaron" unicode="&#x17d;" horiz-adv-x="540" 
d="M436 811l-155 -84l-157 82l25 45l135 -64l130 64zM495 0h-449v56l299 465c21 31 39 58 60 88c-36 -1 -87 -2 -158 -2h-190v68h435v-57l-315 -486c-14 -23 -28 -42 -43 -65c22 3 88 3 177 3h184v-70z" />
    <glyph glyph-name="zcaron" unicode="&#x17e;" horiz-adv-x="446" 
d="M393 0h-344v53l253 379c-32 -1 -85 -2 -141 -2h-107v67h334v-52l-251 -378c30 1 97 2 144 2h112v-69zM355 704l-134 -129l-132 128l36 37l98 -86l98 86z" />
    <glyph glyph-name="onehalf" unicode="&#xbd;" horiz-adv-x="705" 
d="M637 0h-215v44l80 72c43 38 55 57 55 84s-20 48 -54 48c-18 0 -42 -8 -56 -20l-21 49c26 14 58 23 91 23c76 0 109 -43 109 -88c0 -38 -16 -70 -63 -111l-54 -47h128v-54zM600 633l-495 -653l-50 35l496 653zM199 357h-65v237l-72 -34l-16 49l94 41h59v-293z" />
    <glyph glyph-name="onequarter" unicode="&#xbc;" horiz-adv-x="700" 
d="M526 107v141l-87 -141h87zM641 58h-54v-58h-61v58h-145l-3 44l117 191h92v-186h54v-49zM601 633l-496 -653l-50 35l496 653zM199 357h-65v237l-72 -34l-16 49l94 41h59v-293z" />
    <glyph glyph-name="onesuperior" unicode="&#xb9;" horiz-adv-x="305" 
d="M199 357h-65v237l-72 -34l-16 49l94 41h59v-293z" />
    <glyph glyph-name="threequarters" unicode="&#xbe;" horiz-adv-x="700" 
d="M526 107v141l-87 -141h87zM641 58h-54v-58h-61v58h-145l-3 44l117 191h92v-186h54v-49zM601 633l-496 -653l-49 35l495 653zM247 444c0 -63 -53 -95 -135 -95c-21 0 -47 3 -63 7l10 49c15 -4 36 -8 54 -8c45 0 65 17 65 44c0 39 -29 49 -105 42v44h24c55 0 74 20 74 45
c0 21 -14 39 -51 39c-19 0 -38 -5 -52 -12l-15 43c22 10 52 16 83 16c71 0 100 -37 100 -77c0 -34 -14 -55 -46 -70c38 -5 57 -34 57 -67z" />
    <glyph glyph-name="threesuperior" unicode="&#xb3;" horiz-adv-x="303" 
d="M246 444c0 -63 -54 -94 -136 -94c-20 0 -46 3 -62 7l9 49c16 -4 36 -8 54 -8c46 0 65 16 65 43c0 39 -28 49 -104 42v44h24c55 0 74 20 74 45c0 21 -15 39 -51 39c-20 0 -39 -5 -53 -12l-14 43c22 10 52 16 82 16c71 0 101 -37 101 -77c0 -34 -15 -55 -46 -70
c37 -5 57 -34 57 -67z" />
    <glyph glyph-name="twosuperior" unicode="&#xb2;" horiz-adv-x="315" 
d="M261 357h-214v44l80 72c43 38 54 58 54 85s-19 47 -53 47c-18 0 -42 -7 -57 -19l-20 48c26 14 58 24 91 24c76 0 109 -43 109 -89c0 -38 -16 -70 -64 -111l-53 -46h127v-55z" />
    <glyph glyph-name="brokenbar" unicode="&#xa6;" horiz-adv-x="284" 
d="M171 383h-59v368h59v-368zM171 -249h-59v378h59v-378z" />
    <glyph glyph-name="minus" unicode="&#x2212;" 
d="M507 265h-464v65h464v-65z" />
    <glyph glyph-name="multiply" unicode="&#xd7;" 
d="M492 126l-46 -46l-173 173l-173 -173l-42 42l173 173l-173 173l46 46l173 -173l173 173l42 -42l-173 -173z" />
    <glyph glyph-name="Adieresis" unicode="&#xc4;" horiz-adv-x="611" 
d="M455 779c0 -26 -20 -46 -45 -46c-26 0 -46 20 -46 46s20 46 46 46c25 0 45 -20 45 -46zM242 779c0 -26 -20 -46 -45 -46c-26 0 -46 20 -46 46s20 46 46 46c25 0 45 -20 45 -46zM598 0h-87l-59 166h-300l-60 -166h-79l251 675h83zM431 227l-98 272c-12 33 -22 62 -30 91
h-2c-8 -29 -17 -58 -29 -90l-99 -273h258z" />
    <glyph glyph-name="Aring" unicode="&#xc5;" horiz-adv-x="611" 
d="M598 0h-87l-59 166h-300l-60 -166h-79l240 646c-32 15 -54 47 -54 88c0 60 49 105 108 105c61 0 108 -45 108 -105c0 -38 -23 -73 -57 -89zM363 734c0 32 -24 58 -56 58s-56 -26 -56 -58s24 -58 56 -58s56 26 56 58zM431 227l-97 268c-16 32 -23 64 -31 94h-2
c-8 -30 -18 -62 -30 -94l-98 -268h258z" />
    <glyph glyph-name="Ccedilla" unicode="&#xc7;" horiz-adv-x="590" 
d="M544 30c-52 -22 -120 -37 -190 -37c-209 0 -305 130 -305 329c0 204 98 360 328 360c52 0 109 -8 158 -22l-13 -71c-50 17 -105 28 -158 28c-164 0 -232 -128 -232 -282c0 -174 77 -275 242 -275c52 0 113 15 155 36zM355 -41c51 -65 35 -127 -22 -194h-63
c54 67 66 109 19 166z" />
    <glyph glyph-name="Eacute" unicode="&#xc9;" horiz-adv-x="505" 
d="M396 786l-179 -57l-16 44l171 74zM431 0h-340v675h340v-62h-263v-234h250v-62h-250v-253h263v-64z" />
    <glyph glyph-name="Ntilde" unicode="&#xd1;" horiz-adv-x="711" 
d="M520 808c-26 -45 -62 -70 -107 -70c-67 0 -89 54 -134 54c-23 0 -46 -16 -64 -46l-40 29c25 45 62 70 107 70c67 0 89 -54 134 -54c23 0 45 16 64 46zM620 0h-102l-281 448c-30 48 -55 94 -77 138c3 -77 6 -262 6 -379v-207h-75v675h102l276 -438c29 -47 57 -97 83 -144
c-4 90 -7 274 -7 397v185h75v-675z" />
    <glyph glyph-name="Odieresis" unicode="&#xd6;" horiz-adv-x="705" 
d="M502 779c0 -26 -20 -46 -45 -46c-26 0 -46 20 -46 46s20 46 46 46c25 0 45 -20 45 -46zM289 779c0 -26 -20 -46 -45 -46c-26 0 -46 20 -46 46s20 46 46 46c25 0 45 -20 45 -46zM660 345c0 -226 -143 -354 -316 -354c-202 0 -299 135 -299 339c0 227 143 354 317 354
c183 0 298 -122 298 -339zM578 333c0 181 -83 285 -226 285c-119 0 -225 -97 -225 -274c0 -169 73 -286 225 -286c118 0 226 96 226 275z" />
    <glyph glyph-name="Udieresis" unicode="&#xdc;" horiz-adv-x="697" 
d="M495 779c0 -26 -20 -46 -46 -46c-25 0 -45 20 -45 46s20 46 45 46c26 0 46 -20 46 -46zM282 779c0 -26 -20 -46 -46 -46c-25 0 -45 20 -45 46s20 46 45 46c26 0 46 -20 46 -46zM606 256c0 -173 -91 -265 -266 -265c-209 0 -249 117 -249 233v451h77v-444
c0 -97 32 -177 178 -177c124 0 185 52 185 196v425h75v-419z" />
    <glyph glyph-name="aacute" unicode="&#xe1;" horiz-adv-x="520" 
d="M430 0h-74c0 38 0 76 5 105h-2c-24 -63 -88 -114 -173 -114c-79 0 -136 51 -136 132c0 102 107 170 302 170v36c0 75 -27 117 -113 117c-48 0 -106 -16 -146 -38l-17 62c48 21 111 36 175 36c138 0 177 -68 177 -161v-196c0 -49 0 -105 2 -149zM352 225v13
c-177 0 -227 -50 -227 -104c0 -47 32 -82 81 -82c88 0 146 87 146 173zM372 691l-138 -116l-35 39l128 126z" />
    <glyph glyph-name="agrave" unicode="&#xe0;" horiz-adv-x="520" 
d="M430 0h-74c0 38 0 76 5 105h-2c-24 -63 -88 -114 -173 -114c-79 0 -136 51 -136 132c0 102 107 170 302 170v36c0 75 -27 117 -113 117c-48 0 -106 -16 -146 -38l-17 62c48 21 111 36 175 36c138 0 177 -68 177 -161v-196c0 -49 0 -105 2 -149zM352 225v13
c-177 0 -227 -50 -227 -104c0 -47 32 -82 81 -82c88 0 146 87 146 173zM315 614l-35 -39l-138 116l44 49z" />
    <glyph glyph-name="acircumflex" unicode="&#xe2;" horiz-adv-x="520" 
d="M430 0h-74c0 38 0 76 5 105h-2c-24 -63 -88 -114 -173 -114c-79 0 -136 51 -136 132c0 102 107 170 302 170v36c0 75 -27 117 -113 117c-48 0 -106 -16 -146 -38l-17 62c48 21 111 36 175 36c138 0 177 -68 177 -161v-196c0 -49 0 -105 2 -149zM352 225v13
c-177 0 -227 -50 -227 -104c0 -47 32 -82 81 -82c88 0 146 87 146 173zM388 612l-36 -37l-98 86l-99 -86l-34 35l134 130z" />
    <glyph glyph-name="adieresis" unicode="&#xe4;" horiz-adv-x="520" 
d="M430 0h-74c0 38 0 76 5 105h-2c-24 -63 -88 -114 -173 -114c-79 0 -136 51 -136 132c0 102 107 170 302 170v36c0 75 -27 117 -113 117c-48 0 -106 -16 -146 -38l-17 62c48 21 111 36 175 36c138 0 177 -68 177 -161v-196c0 -49 0 -105 2 -149zM352 225v13
c-177 0 -227 -50 -227 -104c0 -47 32 -82 81 -82c88 0 146 87 146 173zM395 657c0 -27 -22 -48 -48 -48c-27 0 -48 21 -48 48c0 26 21 47 48 47c26 0 48 -21 48 -47zM207 657c0 -27 -21 -48 -48 -48s-48 21 -48 48c0 26 21 47 48 47s48 -21 48 -47z" />
    <glyph glyph-name="atilde" unicode="&#xe3;" horiz-adv-x="520" 
d="M430 0h-74c0 38 0 76 5 105h-2c-24 -63 -88 -114 -173 -114c-79 0 -136 51 -136 132c0 102 107 170 302 170v36c0 75 -27 117 -113 117c-48 0 -106 -16 -146 -38l-17 62c48 21 111 36 175 36c138 0 177 -68 177 -161v-196c0 -49 0 -105 2 -149zM352 225v13
c-177 0 -227 -50 -227 -104c0 -47 32 -82 81 -82c88 0 146 87 146 173zM422 673c-25 -46 -61 -73 -104 -73c-65 0 -86 56 -129 56c-22 0 -43 -16 -61 -47l-39 31c25 46 61 73 105 73c64 0 85 -56 128 -56c22 0 44 16 62 47z" />
    <glyph glyph-name="aring" unicode="&#xe5;" horiz-adv-x="520" 
d="M430 0h-74c0 38 0 76 5 105h-2c-24 -63 -88 -114 -173 -114c-79 0 -136 51 -136 132c0 102 107 170 302 170v36c0 75 -27 117 -113 117c-48 0 -106 -16 -146 -38l-17 62c48 21 111 36 175 36c138 0 177 -68 177 -161v-196c0 -49 0 -105 2 -149zM352 225v13
c-177 0 -227 -50 -227 -104c0 -47 32 -82 81 -82c88 0 146 87 146 173zM365 661c0 -57 -49 -105 -108 -105c-60 0 -108 44 -108 105c0 60 49 105 108 105c61 0 108 -45 108 -105zM313 661c0 32 -24 58 -56 58s-56 -26 -56 -58s24 -58 56 -58s56 26 56 58z" />
    <glyph glyph-name="ccedilla" unicode="&#xe7;" horiz-adv-x="440" 
d="M411 21c-43 -18 -99 -28 -152 -28c-111 0 -215 50 -215 238c0 163 82 273 237 273c48 0 92 -8 127 -22l-15 -63c-33 13 -77 24 -121 24c-96 0 -149 -83 -149 -199c0 -102 32 -187 151 -187c45 0 87 9 123 26zM264 -41c51 -65 35 -127 -22 -194h-63c54 67 66 109 19 166z
" />
    <glyph glyph-name="eacute" unicode="&#xe9;" horiz-adv-x="505" 
d="M456 301c0 -9 0 -22 -2 -40h-332c-5 -146 54 -207 165 -207c48 0 98 10 141 29l13 -61c-49 -20 -107 -31 -169 -31c-148 0 -228 81 -228 255c0 149 80 260 218 260c137 0 194 -95 194 -205zM378 316c2 81 -44 133 -120 133c-70 0 -120 -51 -132 -133h252zM376 691
l-138 -116l-35 39l128 126z" />
    <glyph glyph-name="egrave" unicode="&#xe8;" horiz-adv-x="505" 
d="M456 301c0 -9 0 -22 -2 -40h-332c-5 -146 54 -207 165 -207c48 0 98 10 141 29l13 -61c-49 -20 -107 -31 -169 -31c-148 0 -228 81 -228 255c0 149 80 260 218 260c137 0 194 -95 194 -205zM378 316c2 81 -44 133 -120 133c-70 0 -120 -51 -132 -133h252zM318 614
l-35 -39l-138 116l44 49z" />
    <glyph glyph-name="ecircumflex" unicode="&#xea;" horiz-adv-x="505" 
d="M456 301c0 -9 0 -22 -2 -40h-332c-5 -146 54 -207 165 -207c48 0 98 10 141 29l13 -61c-49 -20 -107 -31 -169 -31c-148 0 -228 81 -228 255c0 149 80 260 218 260c137 0 194 -95 194 -205zM378 316c2 81 -44 133 -120 133c-70 0 -120 -51 -132 -133h252zM392 612
l-36 -37l-98 86l-99 -86l-34 35l134 130z" />
    <glyph glyph-name="edieresis" unicode="&#xeb;" horiz-adv-x="505" 
d="M456 301c0 -9 0 -22 -2 -40h-332c-5 -146 54 -207 165 -207c48 0 98 10 141 29l13 -61c-49 -20 -107 -31 -169 -31c-148 0 -228 81 -228 255c0 149 80 260 218 260c137 0 194 -95 194 -205zM378 316c2 81 -44 133 -120 133c-70 0 -120 -51 -132 -133h252zM404 657
c0 -27 -22 -48 -48 -48c-27 0 -48 21 -48 48c0 26 21 47 48 47c26 0 48 -21 48 -47zM216 657c0 -27 -21 -48 -48 -48s-48 21 -48 48c0 26 21 47 48 47s48 -21 48 -47z" />
    <glyph glyph-name="iacute" unicode="&#xed;" horiz-adv-x="257" 
d="M166 0h-75v497h75v-497zM226 691l-138 -116l-35 39l128 126z" />
    <glyph glyph-name="igrave" unicode="&#xec;" horiz-adv-x="257" 
d="M166 0h-75v497h75v-497zM201 614l-35 -39l-138 116l44 49z" />
    <glyph glyph-name="icircumflex" unicode="&#xee;" horiz-adv-x="257" 
d="M166 0h-75v497h75v-497zM262 612l-36 -37l-98 86l-99 -86l-34 35l134 130z" />
    <glyph glyph-name="idieresis" unicode="&#xef;" horiz-adv-x="257" 
d="M166 0h-75v497h75v-497zM272 657c0 -27 -22 -48 -48 -48c-27 0 -48 21 -48 48c0 26 21 47 48 47c26 0 48 -21 48 -47zM84 657c0 -27 -21 -48 -48 -48s-48 21 -48 48c0 26 21 47 48 47s48 -21 48 -47z" />
    <glyph glyph-name="ntilde" unicode="&#xf1;" horiz-adv-x="577" 
d="M486 0h-75v321c0 78 -21 123 -93 123c-89 0 -152 -88 -152 -206v-238h-75v497h74c0 -33 -3 -81 -8 -111l2 -1c28 73 91 121 178 121c114 0 149 -71 149 -160v-346zM459 673c-25 -46 -61 -73 -104 -73c-65 0 -86 56 -129 56c-22 0 -43 -16 -61 -47l-39 31
c25 46 61 73 105 73c64 0 85 -56 128 -56c22 0 44 16 62 47z" />
    <glyph glyph-name="oacute" unicode="&#xf3;" horiz-adv-x="542" 
d="M499 257c0 -148 -91 -266 -238 -266c-133 0 -219 81 -219 255c0 142 88 260 237 260c121 0 220 -67 220 -249zM421 252c0 120 -50 192 -149 192c-78 0 -152 -59 -152 -192c0 -127 55 -197 152 -197c78 0 149 60 149 197zM391 691l-138 -116l-35 39l128 126z" />
    <glyph glyph-name="ograve" unicode="&#xf2;" horiz-adv-x="542" 
d="M499 257c0 -148 -91 -266 -238 -266c-133 0 -219 81 -219 255c0 142 88 260 237 260c121 0 220 -67 220 -249zM421 252c0 120 -50 192 -149 192c-78 0 -152 -59 -152 -192c0 -127 55 -197 152 -197c78 0 149 60 149 197zM336 614l-35 -39l-138 116l44 49z" />
    <glyph glyph-name="ocircumflex" unicode="&#xf4;" horiz-adv-x="542" 
d="M499 257c0 -148 -91 -266 -238 -266c-133 0 -219 81 -219 255c0 142 88 260 237 260c121 0 220 -67 220 -249zM421 252c0 120 -50 192 -149 192c-78 0 -152 -59 -152 -192c0 -127 55 -197 152 -197c78 0 149 60 149 197zM404 612l-36 -37l-98 86l-99 -86l-34 35l134 130z
" />
    <glyph glyph-name="odieresis" unicode="&#xf6;" horiz-adv-x="542" 
d="M499 257c0 -148 -91 -266 -238 -266c-133 0 -219 81 -219 255c0 142 88 260 237 260c121 0 220 -67 220 -249zM421 252c0 120 -50 192 -149 192c-78 0 -152 -59 -152 -192c0 -127 55 -197 152 -197c78 0 149 60 149 197zM412 657c0 -27 -22 -48 -48 -48
c-27 0 -48 21 -48 48c0 26 21 47 48 47c26 0 48 -21 48 -47zM224 657c0 -27 -21 -48 -48 -48s-48 21 -48 48c0 26 21 47 48 47s48 -21 48 -47z" />
    <glyph glyph-name="otilde" unicode="&#xf5;" horiz-adv-x="542" 
d="M499 257c0 -148 -91 -266 -238 -266c-133 0 -219 81 -219 255c0 142 88 260 237 260c121 0 220 -67 220 -249zM421 252c0 120 -50 192 -149 192c-78 0 -152 -59 -152 -192c0 -127 55 -197 152 -197c78 0 149 60 149 197zM441 673c-25 -46 -61 -73 -104 -73
c-65 0 -86 56 -129 56c-22 0 -43 -16 -61 -47l-39 31c25 46 61 73 105 73c64 0 85 -56 128 -56c22 0 44 16 62 47z" />
    <glyph glyph-name="uacute" unicode="&#xfa;" horiz-adv-x="577" 
d="M486 0h-74c0 33 3 81 8 111l-2 1c-28 -73 -91 -121 -178 -121c-114 0 -149 71 -149 160v346h75v-321c0 -78 21 -123 93 -123c89 0 152 88 152 206v238h75v-497zM425 691l-138 -116l-35 39l128 126z" />
    <glyph glyph-name="ugrave" unicode="&#xf9;" horiz-adv-x="577" 
d="M486 0h-74c0 33 3 81 8 111l-2 1c-28 -73 -91 -121 -178 -121c-114 0 -149 71 -149 160v346h75v-321c0 -78 21 -123 93 -123c89 0 152 88 152 206v238h75v-497zM329 614l-35 -39l-138 116l44 49z" />
    <glyph glyph-name="ucircumflex" unicode="&#xfb;" horiz-adv-x="577" 
d="M486 0h-74c0 33 3 81 8 111l-2 1c-28 -73 -91 -121 -178 -121c-114 0 -149 71 -149 160v346h75v-321c0 -78 21 -123 93 -123c89 0 152 88 152 206v238h75v-497zM419 612l-36 -37l-98 86l-99 -86l-34 35l134 130z" />
    <glyph glyph-name="udieresis" unicode="&#xfc;" horiz-adv-x="577" 
d="M486 0h-74c0 33 3 81 8 111l-2 1c-28 -73 -91 -121 -178 -121c-114 0 -149 71 -149 160v346h75v-321c0 -78 21 -123 93 -123c89 0 152 88 152 206v238h75v-497zM427 657c0 -27 -22 -48 -48 -48c-27 0 -48 21 -48 48c0 26 21 47 48 47c26 0 48 -21 48 -47zM239 657
c0 -27 -21 -48 -48 -48s-48 21 -48 48c0 26 21 47 48 47s48 -21 48 -47z" />
    <glyph glyph-name="degree" unicode="&#xb0;" horiz-adv-x="371" 
d="M311 613c0 -76 -65 -123 -131 -123c-75 0 -122 47 -122 120c0 78 63 124 128 124c85 0 125 -56 125 -121zM250 612c0 32 -15 72 -66 72c-37 0 -65 -29 -65 -72c0 -45 26 -72 64 -72c39 0 67 30 67 72z" />
    <glyph glyph-name="registered" unicode="&#xae;" horiz-adv-x="562" 
d="M495 528c0 -117 -98 -214 -214 -214c-122 0 -215 94 -215 214c0 118 96 214 215 214c120 0 214 -93 214 -214zM442 526c0 90 -72 166 -161 166c-90 0 -162 -73 -162 -162c0 -90 72 -166 162 -166c89 0 161 73 161 162zM371 414h-55l-59 99h-3v-99h-44v230h74
c55 0 77 -23 77 -59c0 -38 -22 -61 -57 -66c5 -6 13 -18 21 -31zM315 579c0 21 -10 31 -38 31h-23v-68h15c34 0 46 20 46 37z" />
    <glyph glyph-name="copyright" unicode="&#xa9;" horiz-adv-x="753" 
d="M708 336c0 -184 -149 -333 -333 -333c-190 0 -334 147 -334 331c0 185 149 333 334 333s333 -146 333 -331zM647 334c0 150 -121 275 -272 275s-272 -121 -272 -273c0 -151 121 -275 272 -275s272 122 272 273zM473 175c-29 -11 -64 -17 -98 -17c-113 0 -157 74 -157 172
c0 95 46 183 174 183c29 0 55 -5 77 -12l-6 -56c-21 10 -48 16 -75 16c-77 0 -103 -56 -103 -128c0 -76 30 -120 99 -120c30 0 57 5 82 15z" />
    <glyph glyph-name="trademark" unicode="&#x2122;" horiz-adv-x="702" 
d="M645 394h-60l-23 158l-8 56l-12 -48l-51 -166h-62l-49 168l-12 46l-3 -37l-26 -177h-55l43 281h77l49 -166l11 -48l9 43l53 171h76zM262 628h-75v-234h-60v234h-77v47h212v-47z" />
    <glyph glyph-name="notequal" unicode="&#x2260;" 
d="M495 185h-233l-59 -146h-66l59 146h-141v62h166l39 100h-205v63h230l60 149h67l-60 -149h143v-63h-168l-40 -100h208v-62z" />
    <glyph glyph-name="infinity" unicode="&#x221e;" horiz-adv-x="971" 
d="M909 303c0 -89 -65 -165 -177 -165c-83 0 -165 52 -249 116c-78 -58 -163 -116 -249 -116c-116 0 -172 72 -172 157c0 90 68 165 176 165c85 0 168 -54 251 -117c77 58 163 117 248 117c114 0 172 -72 172 -157zM833 298c0 56 -36 96 -102 96c-54 0 -118 -43 -186 -94
c70 -52 132 -97 191 -97c62 0 97 44 97 95zM427 297c-70 52 -133 97 -191 97c-63 0 -97 -44 -97 -94c0 -56 35 -97 101 -97c55 0 118 43 187 94z" />
    <glyph glyph-name="plusminus" unicode="&#xb1;" 
d="M507 331h-197v-201h-70v201h-197v63h197v200h70v-200h197v-63zM506 0h-462v63h462v-63z" />
    <glyph glyph-name="lessequal" unicode="&#x2264;" 
d="M471 176l-41 -56l-372 244l371 245l42 -52l-303 -192zM483 0h-416v63h416v-63z" />
    <glyph glyph-name="greaterequal" unicode="&#x2265;" 
d="M492 365l-371 -245l-42 53l303 191l-303 189l41 56zM483 0h-416v63h416v-63z" />
    <glyph glyph-name="mu" unicode="&#xb5;" horiz-adv-x="626" 
d="M601 67c-16 -42 -54 -76 -109 -76c-64 0 -79 58 -68 114h-1c-25 -67 -88 -113 -163 -113c-44 0 -77 11 -99 32l11 -273h-79v746h75v-314c0 -79 23 -129 102 -129c81 0 143 85 143 185v258h75v-358c0 -66 9 -83 31 -83c21 0 37 19 45 39z" />
    <glyph glyph-name="partialdiff" unicode="&#x2202;" horiz-adv-x="638" 
d="M561 412c0 -113 -24 -238 -88 -323c-43 -57 -112 -97 -193 -97c-131 0 -200 80 -200 206c0 135 96 237 236 237c84 0 142 -43 166 -106c1 35 1 63 1 91c-5 172 -101 255 -228 253l7 62c182 -3 299 -121 299 -323zM451 238c0 76 -49 134 -141 134
c-91 0 -155 -73 -155 -167c0 -100 56 -149 135 -149c92 0 161 80 161 182z" />
    <glyph glyph-name="summation" unicode="&#x2211;" horiz-adv-x="610" 
d="M551 -249h-515v58l316 440l-297 423v58h482v-65h-387l291 -413l-314 -433h424v-68z" />
    <glyph glyph-name="product" unicode="&#x220f;" horiz-adv-x="784" 
d="M737 665h-109v-914h-73v914h-326v-914h-73v914h-109v65h690v-65z" />
    <glyph glyph-name="pi" unicode="&#x3c0;" horiz-adv-x="673" 
d="M619 1c-24 -6 -57 -9 -88 -9c-86 0 -105 45 -105 140v305h-200v-437h-72v437h-114v60h572v-60h-114v-240c0 -128 7 -147 60 -147c19 0 40 4 56 9z" />
    <glyph glyph-name="integral" unicode="&#x222b;" horiz-adv-x="336" 
d="M319 663c-13 4 -34 8 -51 8c-55 0 -77 -28 -77 -177c0 -159 11 -278 11 -495c0 -189 -49 -256 -149 -256c-17 0 -36 2 -51 5v67c13 -4 34 -8 50 -8c55 0 78 28 78 172c0 149 -11 282 -11 499c0 191 51 257 150 257c16 0 35 -2 50 -6v-66z" />
    <glyph glyph-name="Omega" unicode="&#x3a9;" horiz-adv-x="749" 
d="M677 0h-224v61c88 60 144 147 144 285c0 154 -74 279 -221 279c-140 0 -229 -112 -229 -274c0 -133 43 -219 147 -290v-61h-227v57h152c-94 61 -147 163 -147 291c0 198 123 336 308 336c173 0 294 -115 294 -328c0 -136 -62 -242 -150 -299h153v-57z" />
    <glyph glyph-name="logicalnot" unicode="&#xac;" 
d="M479 106h-65v160h-371v63h436v-223z" />
    <glyph glyph-name="radical" unicode="&#x221a;" horiz-adv-x="605" 
d="M569 758l-235 -758h-86l-154 439h-93v58h153l101 -301c13 -40 26 -80 37 -120h2c10 38 19 75 29 111l165 571h81z" />
    <glyph glyph-name="approxequal" unicode="&#x2248;" 
d="M501 372c-29 -29 -71 -55 -125 -55c-97 0 -120 60 -205 60c-42 0 -76 -24 -97 -42l-25 54c29 26 73 53 126 53c92 0 128 -62 205 -62c35 0 64 18 95 45zM501 201c-29 -23 -73 -49 -125 -49c-99 0 -122 60 -205 60c-42 0 -76 -25 -97 -42l-25 53c28 25 70 54 124 54
c93 0 126 -62 207 -62c35 0 65 14 96 40z" />
    <glyph glyph-name="Delta" unicode="&#x394;" horiz-adv-x="722" 
d="M687 0h-652l283 700h82zM577 67l-222 550l-216 -550h438z" />
    <glyph glyph-name="nbspace" unicode="&#xa0;" horiz-adv-x="218" 
 />
    <glyph glyph-name="Agrave" unicode="&#xc0;" horiz-adv-x="611" 
d="M357 773l-17 -44l-179 57l24 61zM598 0h-87l-59 166h-300l-60 -166h-79l251 675h83zM431 227l-98 272c-12 33 -22 62 -30 91h-2c-8 -29 -17 -58 -29 -90l-99 -273h258z" />
    <glyph glyph-name="Atilde" unicode="&#xc3;" horiz-adv-x="611" 
d="M478 808c-26 -45 -63 -70 -107 -70c-68 0 -90 54 -134 54c-24 0 -47 -16 -65 -46l-40 29c25 45 63 70 107 70c68 0 90 -54 135 -54c23 0 45 16 64 46zM598 0h-87l-59 166h-300l-60 -166h-79l251 675h83zM431 227l-98 272c-12 33 -22 62 -30 91h-2c-8 -29 -17 -58 -29 -90
l-99 -273h258z" />
    <glyph glyph-name="Otilde" unicode="&#xd5;" horiz-adv-x="705" 
d="M523 808c-26 -45 -62 -70 -107 -70c-67 0 -89 54 -134 54c-23 0 -46 -16 -64 -46l-40 29c25 45 62 70 107 70c67 0 89 -54 134 -54c23 0 45 16 64 46zM660 345c0 -226 -143 -354 -316 -354c-202 0 -299 135 -299 339c0 227 143 354 317 354c183 0 298 -122 298 -339z
M578 333c0 181 -83 285 -226 285c-119 0 -225 -97 -225 -274c0 -169 73 -286 225 -286c118 0 226 96 226 275z" />
    <glyph glyph-name="divide" unicode="&#xf7;" 
d="M327 498c0 -30 -24 -53 -54 -53c-29 0 -53 23 -53 53s24 53 53 53c30 0 54 -23 54 -53zM507 266h-464v63h464v-63zM327 96c0 -30 -24 -54 -54 -54c-29 0 -53 24 -53 54c0 29 24 53 53 53c30 0 54 -24 54 -53z" />
    <glyph glyph-name="lozenge" unicode="&#x25ca;" horiz-adv-x="616" 
d="M578 335l-243 -343h-47l-250 349l245 342h45zM497 330l-194 271l-182 -258l193 -268z" />
    <glyph glyph-name="ydieresis" unicode="&#xff;" horiz-adv-x="471" 
d="M461 497l-206 -544c-59 -156 -118 -210 -229 -210c-16 0 -38 3 -53 6l8 67c16 -4 40 -7 59 -7c56 0 99 27 139 133l22 58l-190 497h86l104 -285c16 -45 27 -81 38 -118h1c9 32 30 94 50 151l89 252h82zM377 657c0 -27 -22 -48 -48 -48c-27 0 -48 21 -48 48
c0 26 21 47 48 47c26 0 48 -21 48 -47zM189 657c0 -27 -21 -48 -48 -48s-48 21 -48 48c0 26 21 47 48 47s48 -21 48 -47z" />
    <glyph glyph-name="Ydieresis" unicode="&#x178;" horiz-adv-x="527" 
d="M413 779c0 -26 -20 -46 -46 -46c-25 0 -46 20 -46 46s21 46 46 46c26 0 46 -20 46 -46zM200 779c0 -26 -20 -46 -46 -46c-25 0 -46 20 -46 46s21 46 46 46c26 0 46 -20 46 -46zM515 675l-216 -430v-245h-76v244l-211 431h84l115 -241c19 -40 36 -80 52 -119h1
c16 41 38 86 59 130l111 230h81z" />
    <glyph glyph-name="Euro" unicode="&#x20ac;" 
d="M512 25c-51 -22 -113 -34 -163 -34c-146 0 -228 75 -247 236h-91v52h87c-1 10 -1 22 -1 34c0 21 1 42 2 62h-88v52h95c24 137 104 232 260 232c47 0 101 -12 136 -27l-20 -60c-33 15 -82 26 -129 26c-104 0 -152 -76 -169 -171h200v-52h-208c-1 -17 -1 -34 -1 -52v-44
h209v-52h-203c17 -115 71 -172 183 -172c41 0 90 12 129 29z" />
    <glyph glyph-name="Acircumflex" unicode="&#xc2;" horiz-adv-x="611" 
d="M459 773l-24 -46l-135 64l-130 -64l-22 43l154 84zM598 0h-87l-59 166h-300l-60 -166h-79l251 675h83zM431 227l-98 272c-12 33 -22 62 -30 91h-2c-8 -29 -17 -58 -29 -90l-99 -273h258z" />
    <glyph glyph-name="Ecircumflex" unicode="&#xca;" horiz-adv-x="505" 
d="M413 773l-24 -46l-135 64l-130 -64l-22 43l154 84zM431 0h-340v675h340v-62h-263v-234h250v-62h-250v-253h263v-64z" />
    <glyph glyph-name="Aacute" unicode="&#xc1;" horiz-adv-x="611" 
d="M439 786l-179 -57l-16 44l171 74zM598 0h-87l-59 166h-300l-60 -166h-79l251 675h83zM431 227l-98 272c-12 33 -22 62 -30 91h-2c-8 -29 -17 -58 -29 -90l-99 -273h258z" />
    <glyph glyph-name="Edieresis" unicode="&#xcb;" horiz-adv-x="505" 
d="M407 779c0 -26 -20 -46 -46 -46c-25 0 -45 20 -45 46s20 46 45 46c26 0 46 -20 46 -46zM194 779c0 -26 -20 -46 -46 -46c-25 0 -45 20 -45 46s20 46 45 46c26 0 46 -20 46 -46zM431 0h-340v675h340v-62h-263v-234h250v-62h-250v-253h263v-64z" />
    <glyph glyph-name="Egrave" unicode="&#xc8;" horiz-adv-x="505" 
d="M319 773l-16 -44l-180 57l24 61zM431 0h-340v675h340v-62h-263v-234h250v-62h-250v-253h263v-64z" />
    <glyph glyph-name="Iacute" unicode="&#xcd;" horiz-adv-x="259" 
d="M262 786l-180 -57l-16 44l172 74zM168 0h-77v675h77v-675z" />
    <glyph glyph-name="Icircumflex" unicode="&#xce;" horiz-adv-x="259" 
d="M286 773l-24 -46l-135 64l-130 -64l-22 43l154 84zM168 0h-77v675h77v-675z" />
    <glyph glyph-name="Idieresis" unicode="&#xcf;" horiz-adv-x="259" 
d="M281 779c0 -26 -20 -46 -46 -46c-25 0 -45 20 -45 46s20 46 45 46c26 0 46 -20 46 -46zM68 779c0 -26 -20 -46 -46 -46c-25 0 -45 20 -45 46s20 46 45 46c26 0 46 -20 46 -46zM168 0h-77v675h77v-675z" />
    <glyph glyph-name="Igrave" unicode="&#xcc;" horiz-adv-x="259" 
d="M187 773l-16 -44l-180 57l25 61zM168 0h-77v675h77v-675z" />
    <glyph glyph-name="Oacute" unicode="&#xd3;" horiz-adv-x="705" 
d="M496 786l-180 -57l-16 44l171 74zM660 345c0 -226 -143 -354 -316 -354c-202 0 -299 135 -299 339c0 227 143 354 317 354c183 0 298 -122 298 -339zM578 333c0 181 -83 285 -226 285c-119 0 -225 -97 -225 -274c0 -169 73 -286 225 -286c118 0 226 96 226 275z" />
    <glyph glyph-name="Ocircumflex" unicode="&#xd4;" horiz-adv-x="705" 
d="M516 773l-25 -46l-135 64l-130 -64l-22 43l155 84zM660 345c0 -226 -143 -354 -316 -354c-202 0 -299 135 -299 339c0 227 143 354 317 354c183 0 298 -122 298 -339zM578 333c0 181 -83 285 -226 285c-119 0 -225 -97 -225 -274c0 -169 73 -286 225 -286
c118 0 226 96 226 275z" />
    <glyph glyph-name="apple" unicode="&#xf8ff;" horiz-adv-x="1040" 
d="M159 666c11 13 22 25 35 35l78 -88c-9 -7 -18 -16 -26 -25zM539 700c-12 1 -25 0 -37 0l-6 116c17 1 34 1 49 0zM769 614l77 86c13 -11 25 -22 35 -35l-86 -77c-8 9 -17 18 -26 26zM1015 364c1 -17 1 -33 1 -50l-118 7c1 11 1 25 0 36zM756 339c0 -70 -30 -130 -68 -166
v-76l-16 -5l31 -74l-29 -7l29 -71l-30 -8l11 -25l-29 -66h-49c-3 -24 -40 -43 -85 -43c-47 0 -83 19 -86 43h-49l-48 118l30 8l-31 74l34 8l-19 46v78c-38 39 -68 99 -68 166c0 130 105 236 237 236c129 0 235 -106 235 -236zM396 191h62l-16 141c-17 -4 -27 -9 -36 -12
c-18 -6 -19 37 -8 40c37 10 81 19 123 19c43 0 85 -9 124 -19c9 -3 9 -45 -9 -40c-9 5 -22 8 -38 12l-15 -141h63c35 32 67 84 67 148c0 107 -86 193 -192 193c-107 0 -194 -86 -194 -193c0 -56 24 -111 69 -148zM566 338c-18 3 -31 3 -45 3s-29 0 -47 -3l14 -147h64z
M647 156h-253v-57l16 -40l237 60v37zM651 38l-18 44l-244 -63l18 -42zM651 -40l-17 40l-244 -62l26 -64h210l14 35l-7 15l-76 -20l-11 30zM510 357v1h-2v6h-1v-7h3zM514 362h-1v-3c0 -2 -1 -1 -1 0v3h-1v-3c0 -3 3 -2 3 0v3zM518 357v1c-2 -1 -2 4 0 3v1c-3 1 -4 -6 0 -5z
M522 355c-2 3 -2 7 0 10c-3 0 -3 -10 0 -10zM525 358v-1h1v3c0 2 -2 3 -4 1c1 0 2 1 3 -1c-3 0 -5 -5 0 -2zM525 359c-2 1 -3 -3 0 0zM528 357c6 0 -1 4 2 4v1c-6 0 2 -4 -2 -4v-1zM531 355c3 0 3 10 0 10c2 -3 2 -7 0 -10zM25 364l118 -7v-36l-118 -7c-1 17 -1 34 0 50z
" />
    <glyph glyph-name="Ograve" unicode="&#xd2;" horiz-adv-x="705" 
d="M412 773l-16 -44l-180 57l24 61zM660 345c0 -226 -143 -354 -316 -354c-202 0 -299 135 -299 339c0 227 143 354 317 354c183 0 298 -122 298 -339zM578 333c0 181 -83 285 -226 285c-119 0 -225 -97 -225 -274c0 -169 73 -286 225 -286c118 0 226 96 226 275z" />
    <glyph glyph-name="Uacute" unicode="&#xda;" horiz-adv-x="697" 
d="M482 786l-179 -57l-16 44l171 74zM606 256c0 -173 -91 -265 -266 -265c-209 0 -249 117 -249 233v451h77v-444c0 -97 32 -177 178 -177c124 0 185 52 185 196v425h75v-419z" />
    <glyph glyph-name="Ucircumflex" unicode="&#xdb;" horiz-adv-x="697" 
d="M504 773l-24 -46l-135 64l-130 -64l-22 43l154 84zM606 256c0 -173 -91 -265 -266 -265c-209 0 -249 117 -249 233v451h77v-444c0 -97 32 -177 178 -177c124 0 185 52 185 196v425h75v-419z" />
    <glyph glyph-name="Ugrave" unicode="&#xd9;" horiz-adv-x="697" 
d="M409 773l-16 -44l-179 57l24 61zM606 256c0 -173 -91 -265 -266 -265c-209 0 -249 117 -249 233v451h77v-444c0 -97 32 -177 178 -177c124 0 185 52 185 196v425h75v-419z" />
    <glyph glyph-name="Eth" unicode="&#xd0;" horiz-adv-x="693" 
d="M643 343c0 -232 -157 -346 -379 -346c-67 0 -116 3 -162 3v319h-101v58h101v298c52 0 124 3 194 3c220 0 347 -105 347 -335zM563 338c0 183 -92 278 -275 278c-38 0 -83 -2 -110 -3v-236h148v-58h-148v-254c7 -1 68 -5 97 -5c170 0 288 86 288 278z" />
    <glyph glyph-name="Grave" unicode="&#xf6ce;" horiz-adv-x="368" 
d="M273 773l-16 -44l-180 57l24 61z" />
    <glyph glyph-name="Acute" unicode="&#xf6c9;" horiz-adv-x="387" 
d="M289 786l-179 -57l-16 44l171 74z" />
    <glyph glyph-name="Dieresis" unicode="&#xf6cb;" horiz-adv-x="546" 
d="M416 779c0 -26 -20 -46 -46 -46c-25 0 -45 20 -45 46s20 46 45 46c26 0 46 -20 46 -46zM203 779c0 -26 -20 -46 -46 -46c-25 0 -45 20 -45 46s20 46 45 46c26 0 46 -20 46 -46z" />
    <glyph glyph-name="Circumflex" horiz-adv-x="436" 
d="M373 773l-25 -46l-135 64l-130 -64l-22 43l155 84z" />
    <glyph glyph-name="Tilde" horiz-adv-x="507" 
d="M435 808c-26 -45 -62 -70 -107 -70c-67 0 -89 54 -134 54c-23 0 -46 -16 -64 -46l-40 29c25 45 62 70 107 70c67 0 89 -54 134 -54c23 0 45 16 64 46z" />
    <glyph glyph-name="Caron" unicode="&#xf6ca;" horiz-adv-x="436" 
d="M370 811l-154 -84l-157 82l24 45l135 -64l130 64z" />
    <glyph glyph-name="uni20AC" 
d="M512 25c-51 -22 -113 -34 -163 -34c-146 0 -228 75 -247 236h-91v52h87c-1 10 -1 22 -1 34c0 21 1 42 2 62h-88v52h95c24 137 104 232 260 232c47 0 101 -12 136 -27l-20 -60c-33 15 -82 26 -129 26c-104 0 -152 -76 -169 -171h200v-52h-208c-1 -17 -1 -34 -1 -52v-44
h209v-52h-203c17 -115 71 -172 183 -172c41 0 90 12 129 29z" />
    </font>
</defs>
</svg>
