<?xml version="1.0" standalone="no"?>
<!DOCTYPE svg PUBLIC "-//W3C//DTD SVG 1.1//EN" "http://www.w3.org/Graphics/SVG/1.1/DTD/svg11.dtd" >
<svg xmlns="http://www.w3.org/2000/svg" xmlns:xlink="http://www.w3.org/1999/xlink" version="1.1">
<metadata>
Created by FontForge 20161003 at Tue Jan 23 09:57:52 2018
 By www-data
Copyright Copr. 1999, Luc[as] de Groot &#60;www.FontFabrik.com&#62;. All rights reserved. Published by FontShop International &#60;www.fontfont.de&#62;
</metadata>
<defs>
<font id="TheSans-B5Plain" horiz-adv-x="550" >
  <font-face 
    font-family="TheSans"
    font-weight="500"
    font-stretch="normal"
    units-per-em="1000"
    panose-1="0 0 0 0 0 0 0 0 0 0"
    ascent="800"
    descent="-200"
    x-height="497"
    cap-height="675"
    bbox="-59 -256 1020.5 857"
    underline-thickness="71"
    underline-position="-214"
    stemh="70"
    stemv="90"
    unicode-range="U+0020-FB02"
  />
<missing-glyph 
 />
    <glyph glyph-name=".notdef" 
 />
    <glyph glyph-name="space" unicode=" " horiz-adv-x="218" 
 />
    <glyph glyph-name="exclam" unicode="!" horiz-adv-x="320" 
d="M222 703l-15 -535h-75l-16 535h106zM229 50c0 -33 -26 -59 -60 -59s-61 26 -61 59s27 59 61 59s60 -26 60 -59z" />
    <glyph glyph-name="quotedbl" unicode="&#x22;" horiz-adv-x="366" 
d="M314 699l-14 -230h-67l-14 230h95zM147 699l-15 -230h-66l-14 230h95z" />
    <glyph glyph-name="numbersign" unicode="#" 
d="M519 412h-93l-17 -168h86v-62h-93l-19 -182h-69l20 182h-146l-20 -182h-68l19 182h-88v62h95l17 168h-88v62h94l19 176h68l-18 -176h146l19 176h68l-19 -176h87v-62zM357 412h-146l-17 -168h146z" />
    <glyph glyph-name="dollar" unicode="$" 
d="M460 201c0 -88 -62 -162 -168 -181v-105h-67v101c-47 0 -87 5 -125 14l9 84c36 -14 89 -22 128 -22c73 0 129 29 129 97c0 130 -283 81 -283 276c0 85 64 154 160 168v97h67v-92c39 -1 77 -6 108 -12l-10 -79c-37 11 -76 17 -111 17c-92 0 -123 -46 -123 -88
c0 -125 286 -85 286 -275z" />
    <glyph glyph-name="percent" unicode="%" horiz-adv-x="750" 
d="M706 153c0 -95 -60 -163 -150 -163c-97 0 -141 58 -141 153c0 92 59 160 150 160c94 0 141 -53 141 -150zM651 627l-497 -648l-58 42l497 648zM335 509c0 -95 -60 -162 -150 -162c-97 0 -141 57 -141 153c0 92 59 160 150 160c94 0 141 -53 141 -151zM632 146
c0 66 -22 97 -72 97c-42 0 -71 -37 -71 -94c0 -67 23 -98 74 -98c40 0 69 37 69 95zM261 502c0 67 -22 97 -72 97c-42 0 -71 -37 -71 -93c0 -67 23 -99 74 -99c40 0 69 38 69 95z" />
    <glyph glyph-name="ampersand" unicode="&#x26;" horiz-adv-x="795" 
d="M739 50l-58 -69c-48 33 -104 74 -142 106c-65 -57 -154 -97 -264 -97c-144 0 -219 86 -219 196c0 91 57 153 139 217c-70 81 -93 127 -93 182c0 81 63 151 178 151c104 0 160 -57 160 -135c0 -68 -35 -127 -125 -197c58 -60 144 -141 221 -203v-1c44 62 73 149 68 248h90
c3 -113 -30 -217 -92 -297c50 -39 101 -76 137 -101zM350 592c0 41 -23 76 -78 76c-47 0 -81 -33 -81 -79c0 -33 19 -71 73 -133c56 46 86 85 86 136zM476 136c-82 67 -174 154 -229 214c-70 -56 -99 -101 -99 -153c0 -70 55 -130 143 -130c80 0 142 32 185 69z" />
    <glyph glyph-name="quoteright" unicode="&#x2019;" horiz-adv-x="243" 
d="M126 743c73 0 107 -126 -48 -268l-39 35c64 69 66 114 43 143c-28 36 -5 90 44 90z" />
    <glyph glyph-name="parenleft" unicode="(" horiz-adv-x="303" 
d="M283 -176l-67 -33c-118 187 -146 346 -146 493c0 146 34 318 147 497l65 -31c-81 -139 -124 -298 -124 -461c0 -171 41 -324 125 -465z" />
    <glyph glyph-name="parenright" unicode=")" horiz-adv-x="303" 
d="M238 289c0 -146 -33 -318 -147 -498l-65 32c82 139 124 298 124 460c0 171 -40 324 -125 466l68 32c117 -186 145 -345 145 -492z" />
    <glyph glyph-name="asterisk" unicode="*" horiz-adv-x="374" 
d="M330 535l-34 -58l-90 66l11 -112h-67l11 112l-90 -66l-33 58l103 45l-103 46l34 58l90 -66l-11 112h67l-12 -112l91 66l33 -58l-103 -45z" />
    <glyph glyph-name="plus" unicode="+" 
d="M508 260h-191v-201h-85v201h-190v75h190v200h85v-200h191v-75z" />
    <glyph glyph-name="comma" unicode="," horiz-adv-x="228" 
d="M112 113c74 0 107 -126 -48 -267l-38 34c64 69 66 115 43 144c-28 35 -5 89 43 89z" />
    <glyph glyph-name="hyphen" unicode="-" horiz-adv-x="330" 
d="M283 250h-236v74h236v-74z" />
    <glyph glyph-name="period" unicode="." horiz-adv-x="228" 
d="M176 53c0 -34 -28 -62 -62 -62s-62 28 -62 62s28 62 62 62s62 -28 62 -62z" />
    <glyph glyph-name="slash" unicode="/" horiz-adv-x="438" 
d="M439 757l-350 -918h-86l350 918h86z" />
    <glyph glyph-name="zero" unicode="0" 
d="M502 332c0 -249 -115 -342 -233 -342c-143 0 -222 88 -222 338c0 228 98 332 234 332c129 0 221 -77 221 -328zM405 326c0 193 -42 258 -131 258c-74 0 -130 -64 -130 -250c0 -184 34 -267 130 -267c82 0 131 83 131 259z" />
    <glyph glyph-name="one" unicode="1" 
d="M496 0h-422v81h175v478l-160 -63l-16 84l197 70h72v-569h154v-81z" />
    <glyph glyph-name="two" unicode="2" 
d="M484 0h-426v73l143 141c137 134 161 180 161 243c0 68 -46 122 -129 122c-59 0 -114 -25 -147 -51l-22 78c49 31 113 53 185 53c142 0 211 -89 211 -187c0 -85 -31 -150 -160 -272l-121 -115v-1c42 1 115 2 206 2h99v-86z" />
    <glyph glyph-name="three" unicode="3" 
d="M474 199c0 -128 -107 -209 -273 -209c-45 0 -91 7 -124 16l10 81c36 -12 78 -20 123 -20c109 0 166 49 166 120s-56 116 -162 116c-36 0 -64 -1 -98 -5v72h23c140 0 224 38 224 120c0 59 -47 95 -123 95c-55 0 -102 -15 -143 -37l-9 79c47 19 102 33 168 33
c134 0 202 -67 202 -156c0 -77 -46 -129 -124 -152l-1 -1c81 -8 141 -74 141 -152z" />
    <glyph glyph-name="four" unicode="4" 
d="M528 150h-107v-150h-89v150h-302l-7 73l276 427h122v-418h107v-82zM333 232v328h-1l-217 -331c60 3 178 3 218 3z" />
    <glyph glyph-name="five" unicode="5" 
d="M475 213c0 -134 -108 -222 -270 -222c-44 0 -81 4 -120 13v83c37 -12 79 -19 127 -19c107 0 166 52 166 134c0 80 -67 122 -170 122c-42 0 -83 -4 -109 -8v334h352v-86h-268v-170c17 1 40 2 55 2c155 0 237 -80 237 -183z" />
    <glyph glyph-name="six" unicode="6" 
d="M505 219c0 -138 -90 -229 -226 -229c-141 0 -227 100 -227 274c0 278 138 395 332 395c21 0 45 -1 59 -3v-79c-20 3 -40 5 -66 5c-133 0 -202 -77 -228 -209c-2 -10 -6 -28 -9 -49h1c33 55 93 85 162 85c130 0 202 -84 202 -190zM413 204c0 77 -44 131 -129 131
c-84 0 -133 -68 -133 -124c0 -81 47 -147 136 -147c80 0 126 58 126 140z" />
    <glyph glyph-name="seven" unicode="7" 
d="M495 572c-101 -188 -192 -402 -250 -572h-105c66 181 156 389 251 564c-23 -1 -154 -2 -247 -2h-88v88h439v-78z" />
    <glyph glyph-name="eight" unicode="8" 
d="M495 167c0 -109 -98 -177 -226 -177c-130 0 -215 64 -215 163c0 83 66 133 139 175c-76 39 -123 85 -123 160c0 99 85 172 210 172s199 -66 199 -158c0 -75 -57 -121 -124 -161c72 -37 140 -83 140 -174zM387 494c0 59 -45 94 -114 94c-70 0 -110 -42 -110 -92
c0 -54 37 -82 117 -121c58 33 107 66 107 119zM401 158c0 71 -63 103 -133 135c-63 -35 -120 -72 -120 -133c0 -56 46 -97 130 -97c69 0 123 35 123 95z" />
    <glyph glyph-name="nine" unicode="9" 
d="M494 386c0 -284 -141 -395 -333 -395c-26 0 -54 2 -80 7v81c28 -7 60 -10 90 -10c128 0 198 66 221 195c3 19 5 31 9 48h-1c-32 -46 -87 -74 -156 -74c-128 0 -199 84 -199 196c0 137 94 226 224 226c136 0 225 -83 225 -274zM394 440c0 84 -46 146 -132 146
c-79 0 -126 -61 -126 -138c0 -81 46 -133 126 -133c85 0 132 57 132 125z" />
    <glyph glyph-name="colon" unicode=":" horiz-adv-x="286" 
d="M220 346c0 -35 -28 -62 -62 -62s-62 27 -62 62c0 34 28 62 62 62s62 -28 62 -62zM220 53c0 -34 -28 -62 -62 -62s-62 28 -62 62s28 62 62 62s62 -28 62 -62z" />
    <glyph glyph-name="semicolon" unicode=";" horiz-adv-x="286" 
d="M220 346c0 -35 -28 -62 -62 -62s-62 27 -62 62c0 34 28 62 62 62s62 -28 62 -62zM157 113c74 0 107 -126 -48 -267l-38 34c64 69 66 115 43 144c-28 35 -5 89 43 89z" />
    <glyph glyph-name="less" unicode="&#x3c;" 
d="M446 81l-58 -62l-316 283l316 284l58 -58l-259 -225z" />
    <glyph glyph-name="equal" unicode="=" 
d="M494 346h-438v74h438v-74zM494 175h-438v74h438v-74z" />
    <glyph glyph-name="greater" unicode="&#x3e;" 
d="M478 303l-316 -284l-58 58l259 225l-259 222l58 62z" />
    <glyph glyph-name="question" unicode="?" horiz-adv-x="445" 
d="M385 516c0 -165 -205 -164 -151 -348h-87c-64 198 139 220 139 339c0 66 -78 116 -202 121l11 82c186 -6 290 -95 290 -194zM252 50c0 -33 -27 -59 -61 -59s-60 26 -60 59s26 59 60 59s61 -26 61 -59z" />
    <glyph glyph-name="at" unicode="@" horiz-adv-x="978" 
d="M883 406c0 -179 -98 -277 -227 -277c-82 0 -113 54 -105 109h-3c-16 -41 -78 -109 -150 -109c-65 0 -98 48 -98 135c0 147 75 268 227 268c45 0 91 -6 122 -14l-38 -213c-13 -72 9 -102 59 -102c74 0 131 66 131 198c0 130 -78 260 -282 260c-195 0 -350 -152 -350 -368
c0 -187 106 -304 309 -304c59 0 113 9 168 26l13 -73c-59 -19 -134 -28 -192 -28c-242 0 -381 143 -381 367c0 264 199 452 438 452c242 0 359 -154 359 -327zM566 463c-16 4 -36 6 -58 6c-92 0 -132 -113 -132 -189c0 -51 14 -77 43 -77c49 0 109 67 136 207z" />
    <glyph glyph-name="A" unicode="A" horiz-adv-x="615" 
d="M606 0h-103l-56 158h-287l-56 -158h-94l246 675h102zM423 231l-90 249c-12 33 -21 63 -29 92h-2c-8 -29 -17 -59 -28 -91l-90 -250h239z" />
    <glyph glyph-name="B" unicode="B" horiz-adv-x="570" 
d="M519 202c0 -81 -50 -205 -261 -205c-40 0 -107 2 -173 3v675c49 1 116 3 197 3c145 0 216 -61 216 -162c0 -71 -43 -132 -116 -157v-2c94 -16 137 -85 137 -155zM402 501c0 60 -31 103 -135 103c-32 0 -63 -1 -90 -2v-218c19 -1 37 -1 61 -1c111 0 164 44 164 118z
M422 199c0 87 -78 115 -182 115c-12 0 -47 0 -63 -1v-236c17 -3 47 -5 86 -5c110 0 159 53 159 127z" />
    <glyph glyph-name="C" unicode="C" horiz-adv-x="583" 
d="M538 28c-51 -21 -117 -36 -185 -36c-217 0 -307 138 -307 329c0 206 102 360 330 360c52 0 107 -7 155 -21l-15 -84c-47 16 -99 26 -150 26c-154 0 -220 -118 -220 -266c0 -166 72 -262 229 -262c49 0 108 14 148 34z" />
    <glyph glyph-name="D" unicode="D" horiz-adv-x="678" 
d="M632 345c0 -231 -155 -349 -376 -349c-68 0 -121 4 -171 4v674c52 1 128 4 202 4c216 0 345 -101 345 -333zM535 339c0 172 -82 264 -257 264c-35 0 -76 -2 -101 -3v-520c25 -4 62 -6 89 -6c158 0 269 82 269 265z" />
    <glyph glyph-name="E" unicode="E" horiz-adv-x="501" 
d="M432 0h-347v675h347v-76h-255v-214h243v-74h-243v-234h255v-77z" />
    <glyph glyph-name="F" unicode="F" horiz-adv-x="469" 
d="M429 599h-252v-219h239v-74h-239v-306h-92v675h344v-76z" />
    <glyph glyph-name="G" unicode="G" horiz-adv-x="682" 
d="M601 30c-67 -25 -149 -39 -223 -39c-204 0 -335 124 -335 333c0 207 138 360 363 360c66 0 129 -11 187 -29l-20 -83c-55 21 -114 33 -175 33c-139 0 -257 -90 -257 -270c0 -168 98 -264 250 -264c45 0 83 7 119 18v255h91v-314z" />
    <glyph glyph-name="H" unicode="H" horiz-adv-x="698" 
d="M613 0h-92v311h-344v-311h-92v675h92v-286h344v286h92v-675z" />
    <glyph glyph-name="I" unicode="I" horiz-adv-x="262" 
d="M177 0h-92v675h92v-675z" />
    <glyph glyph-name="J" unicode="J" horiz-adv-x="329" 
d="M245 176c0 -112 -46 -183 -169 -183c-29 0 -54 3 -75 8v80c18 -6 44 -11 69 -11c53 0 83 22 83 112v493h92v-499z" />
    <glyph glyph-name="K" unicode="K" horiz-adv-x="584" 
d="M569 0h-125l-267 334v-334h-92v675h92v-318l268 318h113l-285 -326z" />
    <glyph glyph-name="L" unicode="L" horiz-adv-x="426" 
d="M419 0h-334v675h92v-596h242v-79z" />
    <glyph glyph-name="M" unicode="M" horiz-adv-x="889" 
d="M841 0h-97l-57 390c-10 72 -17 126 -21 166h-2c-7 -32 -17 -73 -33 -122l-145 -434h-98l-137 406c-18 54 -32 104 -43 150h-1c-4 -55 -11 -109 -19 -175l-46 -381h-94l99 675h113l142 -425c12 -36 27 -85 38 -134h2c12 47 22 84 37 128l146 431h114z" />
    <glyph glyph-name="N" unicode="N" horiz-adv-x="707" 
d="M622 0h-120l-257 418c-31 49 -55 95 -77 140c4 -72 7 -234 7 -341v-217h-90v675h121l251 -405c30 -48 58 -100 83 -148c-4 83 -7 249 -7 361v192h89v-675z" />
    <glyph glyph-name="O" unicode="O" horiz-adv-x="705" 
d="M663 345c0 -225 -144 -355 -320 -355c-203 0 -301 135 -301 340c0 225 144 355 320 355c182 0 301 -118 301 -340zM565 334c0 173 -78 270 -213 270c-112 0 -212 -91 -212 -261c0 -161 68 -271 211 -271c110 0 214 88 214 262z" />
    <glyph glyph-name="P" unicode="P" horiz-adv-x="524" 
d="M492 481c0 -132 -108 -225 -261 -225c-17 0 -36 0 -54 2v-258h-92v675c50 2 105 4 166 4c155 0 241 -78 241 -198zM396 472c0 84 -49 131 -155 131c-25 0 -45 0 -64 -1v-266c17 -3 36 -4 55 -4c100 1 164 55 164 140z" />
    <glyph glyph-name="Q" unicode="Q" horiz-adv-x="704" 
d="M663 345c0 -225 -144 -355 -320 -355c-203 0 -301 135 -301 340c0 225 144 355 320 355c182 0 301 -118 301 -340zM703 -185c-173 -25 -242 51 -383 32v81c162 20 226 -53 383 -31v-82zM565 334c0 173 -78 270 -213 270c-112 0 -212 -91 -212 -261
c0 -161 68 -271 211 -271c110 0 214 88 214 262z" />
    <glyph glyph-name="R" unicode="R" horiz-adv-x="553" 
d="M527 0h-117l-221 303h-12v-303h-92v675c46 3 95 4 169 4c133 0 229 -47 229 -176c0 -115 -91 -182 -198 -190c19 -24 41 -49 58 -72zM387 491c0 81 -51 113 -149 113c-23 0 -43 -1 -61 -2v-230c10 -1 30 -2 57 -2c97 0 153 49 153 121z" />
    <glyph glyph-name="S" unicode="S" horiz-adv-x="503" 
d="M455 198c0 -121 -99 -207 -250 -207c-55 0 -106 7 -148 19l11 88c43 -17 92 -27 142 -27c78 0 146 32 146 115c0 152 -305 92 -305 307c0 111 84 191 236 191c39 0 84 -4 122 -13l-11 -81c-36 11 -77 18 -116 18c-92 0 -136 -41 -136 -105c0 -146 309 -93 309 -305z" />
    <glyph glyph-name="T" unicode="T" horiz-adv-x="516" 
d="M499 598h-195v-598h-92v598h-194v77h481v-77z" />
    <glyph glyph-name="U" unicode="U" horiz-adv-x="693" 
d="M607 258c0 -177 -93 -268 -269 -268c-211 0 -253 117 -253 237v448h92v-441c0 -93 31 -168 167 -168c118 0 173 49 173 185v424h90v-417z" />
    <glyph glyph-name="V" unicode="V" horiz-adv-x="618" 
d="M605 675l-248 -675h-103l-243 675h102l151 -434c13 -39 31 -92 43 -138h2c12 46 29 97 47 145l155 427h94z" />
    <glyph glyph-name="W" unicode="W" horiz-adv-x="952" 
d="M918 675l-178 -675h-113l-129 454c-11 39 -19 79 -25 117h-1c-5 -39 -13 -77 -24 -116l-126 -455h-110l-178 675h98l114 -440c12 -45 20 -86 27 -130h1c7 43 16 85 27 125l125 445h104l129 -449c10 -35 20 -78 27 -119h1c7 39 14 74 23 110l117 458h91z" />
    <glyph glyph-name="X" unicode="X" horiz-adv-x="599" 
d="M582 0h-115l-172 279l-171 -279h-107l222 348l-208 327h106l160 -258l157 258h104l-205 -324z" />
    <glyph glyph-name="Y" unicode="Y" horiz-adv-x="537" 
d="M527 675l-215 -432v-243h-92v243l-211 432h101l107 -228c19 -40 36 -79 51 -117h1c16 41 37 85 58 129l104 216h96z" />
    <glyph glyph-name="Z" unicode="Z" horiz-adv-x="539" 
d="M495 0h-449v68l283 446c19 29 35 54 55 81c-32 -1 -78 -2 -147 -2h-181v82h435v-70l-298 -464c-13 -20 -26 -39 -40 -59c21 2 81 2 168 2h174v-84z" />
    <glyph glyph-name="bracketleft" unicode="[" horiz-adv-x="322" 
d="M284 -199h-198v970h198v-69h-114v-830h114v-71z" />
    <glyph glyph-name="backslash" unicode="\" horiz-adv-x="442" 
d="M448 -161h-87l-350 918h87z" />
    <glyph glyph-name="bracketright" unicode="]" horiz-adv-x="322" 
d="M236 -199h-198v71h114v830h-114v69h198v-970z" />
    <glyph glyph-name="asciicircum" unicode="^" 
d="M474 377l-66 -34l-144 265l-138 -265l-62 33l165 299h73z" />
    <glyph glyph-name="underscore" unicode="_" 
d="M550 -249h-550v71h550v-71z" />
    <glyph glyph-name="quoteleft" unicode="&#x2018;" horiz-adv-x="243" 
d="M203 715c-64 -69 -66 -114 -43 -143c28 -36 5 -90 -44 -90c-73 0 -107 126 48 268z" />
    <glyph glyph-name="a" unicode="a" horiz-adv-x="521" 
d="M437 0h-87c0 35 0 71 5 99h-2c-24 -61 -87 -108 -169 -108s-138 54 -138 134c0 107 109 171 299 171v33c0 69 -27 107 -109 107c-47 0 -104 -15 -144 -37l-19 73c48 20 114 35 177 35c144 0 185 -67 185 -164v-200c0 -47 1 -100 2 -143zM345 220v13
c-164 0 -211 -45 -211 -95c0 -44 30 -76 76 -76c81 0 135 80 135 158z" />
    <glyph glyph-name="b" unicode="b" horiz-adv-x="558" 
d="M515 272c0 -174 -99 -279 -259 -279c-69 0 -118 6 -171 20v717h90v-241c0 -29 -3 -68 -9 -93l2 -1c27 70 89 111 164 111c117 0 183 -82 183 -234zM421 264c0 107 -35 168 -110 168c-90 0 -136 -105 -136 -191v-165c26 -8 53 -12 88 -12c95 0 158 57 158 200z" />
    <glyph glyph-name="c" unicode="c" horiz-adv-x="435" 
d="M407 19c-42 -17 -97 -27 -148 -27c-119 0 -218 57 -218 240c0 160 82 273 242 273c45 0 88 -8 122 -21l-17 -77c-31 13 -72 23 -113 23c-90 0 -139 -77 -139 -186c0 -97 31 -174 141 -174c42 0 82 8 116 24z" />
    <glyph glyph-name="d" unicode="d" horiz-adv-x="557" 
d="M472 0h-87c0 28 2 72 8 101l-2 1c-28 -67 -89 -111 -167 -111c-122 0 -183 89 -183 234c0 174 100 279 257 279c27 0 54 -2 84 -5v231h90v-730zM382 257v165c-30 8 -60 11 -88 11c-95 0 -158 -57 -158 -200c0 -107 35 -168 110 -168c90 0 136 105 136 192z" />
    <glyph glyph-name="e" unicode="e" horiz-adv-x="508" 
d="M462 297c0 -12 -1 -26 -3 -46h-325c-4 -130 51 -187 157 -187c48 0 98 10 142 30l13 -72c-50 -20 -110 -31 -172 -31c-151 0 -233 80 -233 255c0 149 81 260 222 260c140 0 199 -95 199 -209zM370 315c2 76 -41 125 -111 125c-65 0 -112 -49 -122 -125h233z" />
    <glyph glyph-name="f" unicode="f" horiz-adv-x="350" 
d="M382 727l-8 -75c-23 8 -49 11 -73 11c-71 0 -102 -40 -102 -128v-38h138v-70h-138v-427h-90v427h-102v70h102v37c0 137 67 202 191 202c28 0 55 -3 82 -9z" />
    <glyph glyph-name="g" unicode="g" horiz-adv-x="541" 
d="M512 -67c0 -105 -107 -189 -263 -189c-128 0 -209 53 -209 149c0 58 38 107 83 132c-30 13 -49 41 -49 74c0 35 22 68 55 84c-45 27 -73 72 -73 137c0 100 75 186 211 186c27 0 45 -3 70 -9h169v-71h-82c25 -20 40 -53 40 -92c0 -102 -69 -180 -210 -180
c-20 0 -35 2 -53 7c-21 -10 -32 -26 -32 -42c0 -28 25 -36 85 -39l91 -3c107 -4 167 -54 167 -144zM375 328c0 68 -40 111 -112 111c-75 0 -118 -48 -118 -111c0 -69 41 -109 115 -109c71 0 115 40 115 109zM421 -78c0 48 -32 78 -102 80l-96 4c-9 0 -21 0 -29 1
c-39 -27 -64 -60 -64 -98c0 -59 56 -94 134 -94c101 0 157 46 157 107z" />
    <glyph glyph-name="h" unicode="h" horiz-adv-x="575" 
d="M491 0h-90v320c0 71 -19 112 -85 112c-82 0 -141 -84 -141 -194v-238h-90v730h90v-236c0 -32 -2 -73 -9 -99l2 -1c29 68 90 112 173 112c114 0 150 -71 150 -159v-347z" />
    <glyph glyph-name="i" unicode="i" horiz-adv-x="260" 
d="M190 654c0 -32 -27 -58 -60 -58s-60 25 -60 58s27 59 60 59s60 -26 60 -59zM175 0h-90v497h90v-497z" />
    <glyph glyph-name="j" unicode="j" horiz-adv-x="266" 
d="M196 654c0 -32 -27 -58 -59 -58c-33 0 -60 25 -60 58s27 59 60 59c32 0 59 -26 59 -59zM181 -55c0 -133 -41 -199 -171 -199c-22 0 -49 3 -69 9l8 79c19 -7 42 -12 63 -12c62 0 80 26 80 115v560h89v-552z" />
    <glyph glyph-name="k" unicode="k" horiz-adv-x="493" 
d="M474 0h-115l-184 256v-256h-90v730h90v-451l175 218h109l-191 -227z" />
    <glyph glyph-name="l" unicode="l" horiz-adv-x="260" 
d="M175 0h-90v730h90v-730z" />
    <glyph glyph-name="m" unicode="m" horiz-adv-x="879" 
d="M794 0h-90v319c0 68 -16 113 -81 113c-71 0 -139 -75 -139 -196v-236h-89v319c0 63 -13 113 -81 113c-76 0 -139 -82 -139 -196v-236h-90v497h87c0 -30 -2 -75 -8 -105l2 -1c29 70 93 115 173 115c105 0 133 -72 137 -113c21 47 74 113 170 113c94 0 148 -50 148 -163
v-343z" />
    <glyph glyph-name="n" unicode="n" horiz-adv-x="575" 
d="M491 0h-90v320c0 71 -19 112 -85 112c-82 0 -141 -84 -141 -194v-238h-90v497h87c0 -30 -2 -75 -8 -105h2c29 68 90 114 175 114c114 0 150 -71 150 -159v-347z" />
    <glyph glyph-name="o" unicode="o" horiz-adv-x="545" 
d="M505 257c0 -150 -96 -266 -243 -266c-135 0 -223 78 -223 253c0 146 92 262 242 262c127 0 224 -70 224 -249zM411 252c0 113 -46 179 -138 179c-72 0 -140 -55 -140 -178c0 -120 49 -186 140 -186c74 0 138 58 138 185z" />
    <glyph glyph-name="p" unicode="p" horiz-adv-x="558" 
d="M515 272c0 -177 -95 -278 -256 -278c-31 0 -55 1 -84 6v-247h-90v744h87c0 -28 -2 -73 -8 -101l2 -1c28 69 88 111 167 111c116 0 182 -82 182 -234zM421 264c0 107 -35 168 -110 168c-90 0 -136 -105 -136 -192v-164c26 -8 54 -12 88 -12c95 0 158 57 158 200z" />
    <glyph glyph-name="q" unicode="q" horiz-adv-x="558" 
d="M473 -247h-89v258c0 23 1 59 7 89l-2 1c-27 -68 -88 -110 -162 -110c-117 0 -184 78 -184 233c0 175 98 281 262 281c60 0 117 -6 168 -14v-738zM384 258v165c-30 7 -59 10 -89 10c-94 0 -157 -57 -157 -200c0 -107 34 -168 109 -168c90 0 137 105 137 193z" />
    <glyph glyph-name="r" unicode="r" horiz-adv-x="355" 
d="M334 506l-4 -89c-105 19 -155 -58 -155 -217v-200h-90v497h87c0 -31 -3 -77 -11 -118h2c21 69 72 137 171 127z" />
    <glyph glyph-name="s" unicode="s" horiz-adv-x="425" 
d="M375 150c0 -91 -80 -159 -210 -159c-38 0 -79 4 -110 13l8 80c32 -13 73 -20 110 -20c64 0 108 29 108 76c0 112 -231 42 -231 217c0 85 66 149 198 149c30 0 66 -4 96 -10l-7 -74c-29 10 -64 15 -97 15c-66 0 -97 -28 -97 -71c0 -110 232 -47 232 -216z" />
    <glyph glyph-name="t" unicode="t" horiz-adv-x="371" 
d="M338 3c-29 -7 -68 -11 -100 -11c-102 0 -133 42 -133 149v286h-102v70h102v161l90 25v-186h139v-70h-139v-254c0 -82 15 -104 71 -104c23 0 45 3 63 8z" />
    <glyph glyph-name="u" unicode="u" horiz-adv-x="575" 
d="M490 0h-87c0 30 3 75 8 105h-2c-29 -68 -90 -114 -175 -114c-114 0 -149 71 -149 159v347h89v-320c0 -71 20 -112 85 -112c82 0 142 84 142 194v238h89v-497z" />
    <glyph glyph-name="v" unicode="v" horiz-adv-x="486" 
d="M478 497l-190 -497h-93l-187 497h101l105 -296c11 -32 21 -63 29 -94h2c8 29 17 61 28 91l108 299h97z" />
    <glyph glyph-name="w" unicode="w" horiz-adv-x="793" 
d="M777 497l-161 -497h-101l-99 293c-10 31 -19 64 -28 99h-1c-10 -44 -22 -83 -35 -125l-83 -267h-100l-153 497h99l76 -265c13 -46 26 -91 36 -130h1c10 44 21 87 34 128l85 267h96l86 -264c20 -62 29 -94 38 -132h1c10 42 19 78 34 128l80 268h95z" />
    <glyph glyph-name="x" unicode="x" horiz-adv-x="518" 
d="M498 0h-116l-126 191l-126 -191h-109l183 249l-174 248h110l123 -187l125 187h101l-171 -245z" />
    <glyph glyph-name="y" unicode="y" horiz-adv-x="480" 
d="M472 497l-204 -539c-60 -160 -123 -213 -234 -213c-18 0 -42 3 -58 6l10 80c16 -5 41 -8 60 -8c51 0 95 25 131 123l20 54l-188 497h102l94 -258c16 -45 27 -84 38 -123h2c9 35 30 98 49 153l80 228h98z" />
    <glyph glyph-name="z" unicode="z" horiz-adv-x="447" 
d="M396 0h-348v63l238 356c-28 -1 -77 -2 -131 -2h-102v80h338v-63l-235 -353c27 1 91 2 135 2h105v-83z" />
    <glyph glyph-name="braceleft" unicode="{" horiz-adv-x="341" 
d="M309 -199h-18c-114 0 -156 65 -156 195v175c0 79 -29 106 -106 110v71c79 4 106 27 106 108v117c0 115 38 194 156 194h18v-69c-69 0 -91 -28 -91 -122v-116c0 -89 -32 -135 -93 -146v-2c60 -9 93 -60 93 -148v-174c0 -94 22 -122 91 -122v-71z" />
    <glyph glyph-name="bar" unicode="|" horiz-adv-x="285" 
d="M177 -247h-71v1000h71v-1000z" />
    <glyph glyph-name="braceright" unicode="}" horiz-adv-x="338" 
d="M318 281c-77 -4 -106 -31 -106 -110v-175c0 -130 -42 -195 -156 -195h-18v71c69 0 91 28 91 122v174c0 88 33 139 93 148v2c-62 8 -93 57 -93 142v120c0 94 -22 122 -91 122v69h18c118 0 156 -79 156 -194v-113c0 -85 27 -108 106 -112v-71z" />
    <glyph glyph-name="asciitilde" unicode="~" 
d="M497 564c0 -86 -51 -146 -133 -146c-111 0 -112 110 -182 110c-42 0 -60 -36 -61 -89h-67v10c0 87 52 147 134 147c111 0 112 -111 182 -111c41 0 59 36 60 89h67v-10z" />
    <glyph glyph-name="exclamdown" unicode="&#xa1;" horiz-adv-x="320" 
d="M211 447c0 -33 -26 -59 -60 -59s-60 26 -60 59s26 59 60 59s60 -26 60 -59zM204 -206h-107l15 535h76z" />
    <glyph glyph-name="cent" unicode="&#xa2;" 
d="M470 136c-37 -18 -79 -30 -122 -33v-103h-70v103c-128 8 -199 88 -199 226c0 126 74 210 199 231v90h70v-87c36 -1 78 -9 114 -23l-17 -75c-33 15 -73 25 -115 25c-96 0 -157 -54 -157 -158c0 -90 44 -154 155 -154c43 0 86 11 119 30z" />
    <glyph glyph-name="sterling" unicode="&#xa3;" 
d="M480 0h-407v62c61 52 94 98 94 153c0 23 -3 48 -7 72h-106v70h96c-6 37 -12 75 -12 110c0 138 77 193 198 193c33 0 82 -6 120 -17l-20 -77c-32 11 -71 20 -107 20c-67 0 -100 -38 -100 -109c0 -39 7 -80 13 -120h159v-70h-150c4 -23 6 -45 6 -67
c0 -60 -25 -100 -76 -144c22 1 51 2 81 2h218v-78z" />
    <glyph glyph-name="fraction" unicode="&#x2044;" horiz-adv-x="419" 
d="M494 652l-479 -679l-64 46l479 679z" />
    <glyph glyph-name="yen" unicode="&#xa5;" 
d="M517 650l-176 -354h143v-61h-165v-70h165v-61h-165v-104h-91v104h-165v61h165v70h-165v61h144l-173 354h100l94 -201c19 -41 33 -80 46 -115h2c14 39 33 82 52 121l93 195h96z" />
    <glyph glyph-name="florin" unicode="&#x192;" 
d="M517 689l-13 -76c-30 9 -63 15 -89 15c-63 0 -94 -35 -102 -119l-15 -152h149v-70h-155l-24 -246c-13 -141 -84 -201 -204 -201c-27 0 -61 5 -91 13l13 76c29 -9 63 -15 89 -15c62 0 94 35 102 118l24 255h-115v70h122l15 143c14 141 82 201 203 201c28 0 62 -4 91 -12z
" />
    <glyph glyph-name="section" unicode="&#xa7;" horiz-adv-x="520" 
d="M434 235c0 -55 -29 -104 -79 -141c23 -31 39 -64 39 -105c0 -79 -60 -154 -189 -154c-23 0 -53 4 -79 11l7 76c29 -9 51 -12 75 -12c59 0 91 32 91 76c0 106 -227 186 -227 353c0 55 28 103 79 142c-24 31 -39 64 -39 103c0 83 56 152 180 152c23 0 52 -3 75 -8l-7 -76
c-24 7 -45 10 -69 10c-56 0 -84 -27 -84 -72c0 -104 227 -189 227 -355zM349 223c0 76 -78 134 -149 208c-30 -22 -43 -52 -43 -81c0 -72 72 -130 150 -207c30 21 42 52 42 80z" />
    <glyph glyph-name="currency" unicode="&#xa4;" 
d="M501 110l-66 -50l-80 108c-26 -16 -56 -24 -88 -24c-26 0 -49 5 -68 13l-72 -97l-67 49l73 90c-25 29 -40 72 -40 130c0 51 16 94 45 125l-78 96l66 48l74 -101c24 13 53 18 82 18c25 0 54 -4 80 -17l75 101l64 -49l-77 -97c20 -26 33 -65 33 -118
c0 -48 -15 -90 -40 -121zM376 334c0 66 -28 114 -104 114c-54 0 -98 -44 -98 -117c0 -66 27 -120 103 -120c52 0 99 45 99 123z" />
    <glyph glyph-name="quotesingle" unicode="'" horiz-adv-x="199" 
d="M147 699l-15 -230h-66l-14 230h95z" />
    <glyph glyph-name="quotedblleft" unicode="&#x201c;" horiz-adv-x="433" 
d="M393 715c-64 -69 -66 -114 -43 -143c28 -36 5 -90 -44 -90c-73 0 -107 126 48 268zM203 715c-64 -69 -66 -114 -43 -143c28 -36 5 -90 -44 -90c-73 0 -107 126 48 268z" />
    <glyph glyph-name="guillemotleft" unicode="&#xab;" horiz-adv-x="509" 
d="M437 152l-68 -36l-122 177l123 180l66 -35l-100 -144zM237 150l-70 -36l-113 179l114 182l68 -35l-92 -146z" />
    <glyph glyph-name="guilsinglleft" unicode="&#x2039;" horiz-adv-x="313" 
d="M240 152l-68 -37l-119 178l120 181l66 -36l-97 -144z" />
    <glyph glyph-name="guilsinglright" unicode="&#x203a;" horiz-adv-x="313" 
d="M260 296l-121 -181l-66 36l98 144l-97 142l68 37z" />
    <glyph glyph-name="fi" unicode="&#xfb01;" horiz-adv-x="590" 
d="M505 0h-90v427h-216v-427h-90v427h-102v70h102v22c0 140 74 217 232 217c50 0 97 -7 140 -18l-17 -75c-37 11 -85 19 -121 19c-102 0 -144 -48 -144 -133v-32h306v-497z" />
    <glyph glyph-name="fl" unicode="&#xfb02;" horiz-adv-x="590" 
d="M505 0h-90v656c-29 5 -57 7 -86 7c-88 0 -130 -35 -130 -117v-49h135v-70h-135v-427h-90v427h-102v70h102v57c0 112 71 182 229 182c51 0 111 -6 167 -15v-721z" />
    <glyph glyph-name="endash" unicode="&#x2013;" 
d="M550 259h-550v78h550v-78z" />
    <glyph glyph-name="dagger" unicode="&#x2020;" horiz-adv-x="449" 
d="M400 557h-140l17 -98l-19 -251h-67l-19 251l16 98h-140v70h140l-16 137h105l-17 -137h140v-70z" />
    <glyph glyph-name="daggerdbl" unicode="&#x2021;" horiz-adv-x="449" 
d="M400 295h-139l16 -130h-106l17 130h-140v70h140l-16 100l16 99h-140v70h140l-16 130h105l-16 -130h139v-70h-139l16 -99l-16 -100h139v-70z" />
    <glyph glyph-name="periodcentered" unicode="&#xb7;" horiz-adv-x="234" 
d="M181 297c0 -35 -28 -64 -64 -64s-64 29 -64 64c0 36 28 64 64 64s64 -28 64 -64z" />
    <glyph glyph-name="paragraph" unicode="&#xb6;" horiz-adv-x="576" 
d="M516 605h-71v-701h-154v70h73v701h152v-70zM289 247c-153 0 -223 99 -223 216c0 123 90 212 223 212v-428z" />
    <glyph glyph-name="bullet" unicode="&#x2022;" horiz-adv-x="420" 
d="M331 297c0 -67 -54 -121 -121 -121s-121 54 -121 121s54 121 121 121s121 -54 121 -121z" />
    <glyph glyph-name="quotesinglbase" unicode="&#x201a;" horiz-adv-x="243" 
d="M126 113c73 0 107 -126 -48 -267l-39 34c64 69 66 115 43 144c-28 35 -5 89 44 89z" />
    <glyph glyph-name="quotedblbase" unicode="&#x201e;" horiz-adv-x="433" 
d="M316 113c73 0 107 -126 -48 -267l-39 34c64 69 66 115 43 144c-28 35 -5 89 44 89zM126 113c73 0 107 -126 -48 -267l-39 34c64 69 66 115 43 144c-28 35 -5 89 44 89z" />
    <glyph glyph-name="quotedblright" unicode="&#x201d;" horiz-adv-x="433" 
d="M316 743c73 0 107 -126 -48 -268l-39 35c64 69 66 114 43 143c-28 36 -5 90 44 90zM126 743c73 0 107 -126 -48 -268l-39 35c64 69 66 114 43 143c-28 36 -5 90 44 90z" />
    <glyph glyph-name="guillemotright" unicode="&#xbb;" horiz-adv-x="509" 
d="M455 296l-115 -182l-67 35l92 146l-92 144l70 36zM263 296l-125 -180l-66 35l101 144l-100 142l68 36z" />
    <glyph glyph-name="ellipsis" unicode="&#x2026;" horiz-adv-x="665" 
d="M603 51c0 -33 -27 -60 -61 -60c-33 0 -60 27 -60 60c0 34 27 61 60 61c34 0 61 -27 61 -61zM388 51c0 -33 -27 -60 -61 -60c-33 0 -60 27 -60 60c0 34 27 61 60 61c34 0 61 -27 61 -61zM173 51c0 -33 -27 -60 -60 -60c-34 0 -61 27 -61 60c0 34 27 61 61 61
c33 0 60 -27 60 -61z" />
    <glyph glyph-name="perthousand" unicode="&#x2030;" horiz-adv-x="1026" 
d="M898 144c0 62 -19 91 -64 91c-41 0 -67 -36 -67 -92c0 -63 20 -92 65 -92c41 0 66 35 66 93zM969 151c0 -102 -64 -161 -141 -161c-79 0 -132 45 -132 147c0 100 65 158 141 158s132 -40 132 -144zM580 144c0 62 -19 91 -65 91c-41 0 -66 -36 -66 -92
c0 -63 19 -92 64 -92c41 0 67 35 67 93zM651 151c0 -102 -65 -161 -142 -161c-79 0 -132 45 -132 147c0 100 65 158 141 158s133 -40 133 -144zM640 622l-528 -638l-55 42l527 640zM249 508c0 62 -19 91 -64 91c-41 0 -66 -35 -66 -92c0 -63 19 -92 64 -92c41 0 66 36 66 93
zM321 515c0 -102 -65 -160 -142 -160c-79 0 -132 45 -132 146c0 100 65 159 141 159s133 -41 133 -145z" />
    <glyph glyph-name="questiondown" unicode="&#xbf;" horiz-adv-x="445" 
d="M314 447c0 -33 -26 -59 -60 -59s-60 26 -60 59s26 59 60 59s60 -26 60 -59zM362 -131l-12 -82c-186 6 -290 95 -290 194c0 165 205 164 151 348h88c63 -198 -140 -220 -140 -339c0 -66 78 -116 203 -121z" />
    <glyph glyph-name="grave" unicode="`" horiz-adv-x="369" 
d="M283 619l-39 -49l-150 114l49 60z" />
    <glyph glyph-name="acute" unicode="&#xb4;" horiz-adv-x="389" 
d="M286 684l-150 -114l-39 48l140 126z" />
    <glyph glyph-name="circumflex" unicode="&#x2c6;" horiz-adv-x="433" 
d="M353 614l-40 -44l-99 85l-100 -85l-39 42l140 132z" />
    <glyph glyph-name="tilde" unicode="&#x2dc;" horiz-adv-x="496" 
d="M415 672c-26 -50 -63 -78 -109 -78c-65 0 -85 55 -127 55c-22 0 -42 -16 -59 -47l-45 36c26 49 63 77 109 77c65 0 85 -54 127 -54c22 0 42 15 60 46z" />
    <glyph glyph-name="macron" unicode="&#xaf;" horiz-adv-x="395" 
d="M324 616h-253v68h253v-68z" />
    <glyph glyph-name="breve" unicode="&#x2d8;" horiz-adv-x="400" 
d="M325 719c0 -70 -39 -134 -127 -134s-123 65 -123 134h62c0 -36 21 -66 62 -66c39 0 63 24 63 66h63z" />
    <glyph glyph-name="dotaccent" unicode="&#x2d9;" horiz-adv-x="283" 
d="M199 654c0 -32 -27 -58 -60 -58c-32 0 -59 25 -59 58s27 59 59 59c33 0 60 -26 60 -59z" />
    <glyph glyph-name="dieresis" unicode="&#xa8;" horiz-adv-x="546" 
d="M414 654c0 -30 -23 -53 -53 -53s-54 23 -54 53s24 54 54 54s53 -24 53 -54zM222 654c0 -30 -23 -53 -53 -53s-54 23 -54 53s24 54 54 54s53 -24 53 -54z" />
    <glyph glyph-name="ring" unicode="&#x2da;" horiz-adv-x="383" 
d="M305 651c0 -60 -51 -109 -114 -109s-113 46 -113 109s52 110 113 110c64 0 114 -47 114 -110zM247 651c0 31 -25 57 -56 57s-55 -26 -55 -57s24 -56 55 -56s56 25 56 56z" />
    <glyph glyph-name="cedilla" unicode="&#xb8;" horiz-adv-x="400" 
d="M258 -40c51 -67 36 -130 -21 -195h-73c52 65 64 107 17 165z" />
    <glyph glyph-name="hungarumlaut" unicode="&#x2dd;" horiz-adv-x="493" 
d="M433 694l-138 -124l-44 40l129 134zM251 702l-130 -132l-44 39l118 141z" />
    <glyph glyph-name="ogonek" unicode="&#x2db;" horiz-adv-x="289" 
d="M242 -151c-28 -36 -70 -61 -120 -61c-61 0 -91 33 -91 80c0 42 28 94 83 132h98c-65 -36 -91 -79 -91 -108c0 -21 13 -31 31 -31c19 0 37 11 51 28z" />
    <glyph glyph-name="caron" unicode="&#x2c7;" horiz-adv-x="433" 
d="M351 702l-139 -132l-139 130l40 44l100 -85l100 85z" />
    <glyph glyph-name="emdash" unicode="&#x2014;" horiz-adv-x="1000" 
d="M882 259h-764v78h764v-78z" />
    <glyph glyph-name="AE" unicode="&#xc6;" horiz-adv-x="781" 
d="M711 0h-349v163h-224l-85 -163h-96l359 675h386v-76h-250v-214h240v-74h-240v-234h259v-77zM362 236v362h-2c-17 -38 -33 -76 -66 -137l-122 -225h190z" />
    <glyph glyph-name="ordfeminine" unicode="&#xaa;" horiz-adv-x="389" 
d="M320 343h-74c0 15 1 36 5 53l-2 1c-13 -32 -56 -61 -101 -61c-69 0 -100 36 -100 86c0 76 75 122 197 122v18c0 26 -8 60 -65 60c-39 0 -76 -11 -105 -26l-7 66c34 13 77 21 123 21c99 0 128 -54 128 -111c0 -59 -1 -112 -1 -142c0 -47 1 -70 2 -87zM345 211h-288v71h288
v-71zM245 484v9c-88 0 -123 -22 -123 -59c0 -23 16 -38 43 -38c56 0 80 60 80 88z" />
    <glyph glyph-name="Lslash" unicode="&#x141;" horiz-adv-x="441" 
d="M434 0h-333v282l-91 -31l-16 67l107 37v320h91v-292l117 40l16 -69l-133 -45v-230h242v-79z" />
    <glyph glyph-name="Oslash" unicode="&#xd8;" horiz-adv-x="705" 
d="M663 343c0 -225 -140 -353 -323 -353c-29 0 -54 3 -77 9l-38 -102l-68 22l37 102c-106 52 -152 168 -152 311c0 223 143 353 319 353c25 0 49 -3 71 -8l35 97l69 -23l-35 -94c101 -45 162 -150 162 -314zM568 333c0 110 -33 197 -98 237l-180 -492c21 -6 44 -8 66 -7
c118 3 212 92 212 262zM405 598c-21 5 -42 7 -68 5c-108 -7 -200 -97 -200 -262c0 -104 25 -187 88 -230z" />
    <glyph glyph-name="OE" unicode="&#x152;" horiz-adv-x="863" 
d="M794 0h-341c-36 -6 -73 -10 -110 -10c-203 0 -301 135 -301 340c0 225 144 355 318 355c36 0 69 -4 101 -10h333v-76h-256v-214h244v-74h-244v-234h256v-77zM447 86v504c-30 9 -58 14 -93 14c-114 0 -214 -91 -214 -261c0 -161 68 -271 211 -271c30 0 66 5 96 14z" />
    <glyph glyph-name="ordmasculine" unicode="&#xba;" horiz-adv-x="419" 
d="M368 515c0 -107 -71 -178 -169 -178c-89 0 -152 47 -152 173c0 103 70 174 165 174c77 0 156 -36 156 -169zM354 211h-292v71h292v-71zM288 514c0 54 -19 104 -80 104c-40 0 -81 -30 -81 -106c0 -54 16 -108 78 -108c48 0 83 33 83 110z" />
    <glyph glyph-name="ae" unicode="&#xe6;" horiz-adv-x="807" 
d="M761 297c0 -12 -1 -26 -3 -46h-324c-5 -130 51 -187 156 -187c48 0 98 10 142 30l13 -72c-50 -20 -110 -31 -172 -31c-112 0 -175 50 -198 114h-1c-29 -60 -95 -114 -189 -114c-83 0 -139 54 -139 134c0 107 109 171 299 171v33c0 69 -27 107 -109 107
c-47 0 -104 -15 -144 -37l-19 73c48 20 114 35 177 35c73 0 128 -22 154 -78h1c30 44 86 77 158 77c139 0 198 -95 198 -209zM669 315c2 76 -40 125 -110 125c-65 0 -112 -49 -123 -125h233zM345 220v13c-164 0 -211 -45 -211 -95c0 -44 30 -76 76 -76c81 0 135 80 135 158z
" />
    <glyph glyph-name="dotlessi" unicode="&#x131;" horiz-adv-x="260" 
d="M175 0h-90v497h90v-497z" />
    <glyph glyph-name="lslash" unicode="&#x142;" horiz-adv-x="295" 
d="M298 347l-106 -36v-311h-90v284l-93 -31l-12 67l105 36v374h90v-346l93 32z" />
    <glyph glyph-name="oslash" unicode="&#xf8;" horiz-adv-x="545" 
d="M505 257c0 -150 -96 -266 -242 -266c-22 0 -44 3 -63 8l-40 -103l-58 19l40 104c-71 42 -103 125 -103 225c0 148 93 262 242 262c15 0 31 -1 47 -4l36 94l58 -19l-36 -92c67 -32 119 -100 119 -228zM418 252c0 74 -21 127 -62 156l-128 -336c15 -5 33 -8 53 -8
c71 3 137 59 137 188zM300 431c-12 2 -24 3 -37 2c-65 -3 -137 -50 -137 -180c0 -64 17 -120 50 -150z" />
    <glyph glyph-name="oe" unicode="&#x153;" horiz-adv-x="872" 
d="M827 297c0 -12 -1 -26 -3 -46h-325c-4 -130 51 -187 157 -187c48 0 98 10 142 30l13 -72c-50 -20 -111 -31 -172 -31c-99 0 -159 39 -192 101c-36 -58 -97 -101 -185 -101c-135 0 -223 78 -223 253c0 146 92 262 242 262c72 0 141 -29 178 -94c34 56 91 94 169 94
c140 0 199 -95 199 -209zM735 315c2 76 -41 125 -111 125c-65 0 -112 -49 -122 -125h233zM411 252c0 113 -46 179 -138 179c-72 0 -140 -55 -140 -178c0 -120 49 -186 140 -186c74 0 138 58 138 185z" />
    <glyph glyph-name="germandbls" unicode="&#xdf;" horiz-adv-x="593" 
d="M552 149c0 -92 -77 -159 -199 -159c-39 0 -74 5 -99 11l6 79c28 -10 61 -17 92 -17c76 0 108 36 108 75c0 107 -197 88 -197 245c0 120 135 116 135 209c0 49 -39 73 -95 73c-81 0 -128 -46 -128 -160v-505h-90v500c0 173 99 235 223 235c116 0 182 -56 182 -135
c0 -135 -136 -120 -136 -207c0 -103 198 -90 198 -244z" />
    <glyph glyph-name="eth" unicode="&#xf0;" horiz-adv-x="546" 
d="M503 273c0 -191 -104 -282 -237 -282c-135 0 -226 81 -226 253c0 148 91 261 235 261c42 0 85 -13 105 -45c-11 21 -24 41 -30 51c-16 28 -36 56 -64 86l-102 -46l-38 47l94 42c-23 21 -50 42 -81 66l90 38c26 -21 51 -43 75 -68l100 44l39 -47l-98 -42
c87 -104 138 -227 138 -358zM410 261c0 103 -46 170 -138 170c-72 0 -139 -56 -139 -180c0 -118 54 -184 143 -184c74 0 134 55 134 194z" />
    <glyph glyph-name="Scaron" unicode="&#x160;" horiz-adv-x="503" 
d="M418 809l-157 -85l-160 83l27 50l135 -63l132 63zM455 198c0 -121 -99 -207 -250 -207c-55 0 -106 7 -148 19l11 88c43 -17 92 -27 142 -27c78 0 146 32 146 115c0 152 -305 92 -305 307c0 111 84 191 236 191c39 0 84 -4 122 -13l-11 -81c-36 11 -77 18 -116 18
c-92 0 -136 -41 -136 -105c0 -146 309 -93 309 -305z" />
    <glyph glyph-name="scaron" unicode="&#x161;" horiz-adv-x="425" 
d="M375 150c0 -91 -80 -159 -210 -159c-38 0 -79 4 -110 13l8 80c32 -13 73 -20 110 -20c64 0 108 29 108 76c0 112 -231 42 -231 217c0 85 66 149 198 149c30 0 66 -4 96 -10l-7 -74c-29 10 -64 15 -97 15c-66 0 -97 -28 -97 -71c0 -110 232 -47 232 -216zM357 702
l-139 -132l-139 130l40 44l100 -85l100 85z" />
    <glyph glyph-name="Yacute" unicode="&#xdd;" horiz-adv-x="537" 
d="M420 781l-190 -56l-17 52l182 74zM527 675l-215 -432v-243h-92v243l-211 432h101l107 -228c19 -40 36 -79 51 -117h1c16 41 37 85 58 129l104 216h96z" />
    <glyph glyph-name="yacute" unicode="&#xfd;" horiz-adv-x="480" 
d="M472 497l-204 -539c-60 -160 -123 -213 -234 -213c-18 0 -42 3 -58 6l10 80c16 -5 41 -8 60 -8c51 0 95 25 131 123l20 54l-188 497h102l94 -258c16 -45 27 -84 38 -123h2c9 35 30 98 49 153l80 228h98zM382 684l-150 -114l-39 48l140 126z" />
    <glyph glyph-name="HT" horiz-adv-x="705" 
 />
    <glyph glyph-name="Thorn" unicode="&#xde;" horiz-adv-x="530" 
d="M512 367c0 -139 -114 -233 -274 -233c-23 0 -42 1 -61 4v-138h-92v675h92v-102c27 1 52 2 84 2c156 0 251 -71 251 -208zM417 360c0 84 -50 140 -173 140c-22 0 -45 -1 -67 -5v-281c20 -3 43 -4 69 -4c106 0 171 53 171 150z" />
    <glyph glyph-name="thorn" unicode="&#xfe;" horiz-adv-x="558" 
d="M515 272c0 -177 -95 -278 -256 -278c-31 0 -55 1 -84 6v-247h-90v977h90v-218c0 -36 -2 -84 -7 -111l2 -1c27 64 85 106 163 106c116 0 182 -82 182 -234zM421 264c0 107 -35 168 -110 168c-90 0 -136 -105 -136 -192v-164c26 -8 54 -12 88 -12c95 0 158 57 158 200z" />
    <glyph glyph-name="Zcaron" unicode="&#x17d;" horiz-adv-x="539" 
d="M439 809l-157 -85l-160 83l27 50l135 -63l132 63zM495 0h-449v68l283 446c19 29 35 54 55 81c-32 -1 -78 -2 -147 -2h-181v82h435v-70l-298 -464c-13 -20 -26 -39 -40 -59c21 2 81 2 168 2h174v-84z" />
    <glyph glyph-name="zcaron" unicode="&#x17e;" horiz-adv-x="447" 
d="M396 0h-348v63l238 356c-28 -1 -77 -2 -131 -2h-102v80h338v-63l-235 -353c27 1 91 2 135 2h105v-83zM362 702l-139 -132l-139 130l40 44l100 -85l100 85z" />
    <glyph glyph-name="onehalf" unicode="&#xbd;" horiz-adv-x="711" 
d="M647 0h-220v51l73 66c43 37 55 56 55 81s-17 44 -49 44c-18 0 -41 -8 -56 -19l-20 56c27 13 61 23 95 23c79 0 112 -44 112 -90c0 -37 -17 -69 -64 -109l-48 -42h122v-61zM610 627l-497 -648l-58 42l497 648zM207 356h-76v231l-70 -32l-17 56l94 39h69v-294z" />
    <glyph glyph-name="onequarter" unicode="&#xbc;" horiz-adv-x="707" 
d="M530 111v134l-82 -134h82zM650 55h-51v-55h-69v55h-144l-4 51l113 188h104v-183h51v-56zM610 627l-497 -648l-58 42l497 648zM207 356h-76v231l-70 -32l-17 56l94 39h69v-294z" />
    <glyph glyph-name="onesuperior" unicode="&#xb9;" horiz-adv-x="309" 
d="M207 356h-76v231l-70 -32l-17 56l94 39h69v-294z" />
    <glyph glyph-name="threequarters" unicode="&#xbe;" horiz-adv-x="708" 
d="M532 111v134l-83 -134h83zM652 55h-51v-55h-70v55h-144l-4 51l113 188h105v-183h51v-56zM612 627l-497 -648l-58 42l497 648zM254 443c0 -62 -53 -96 -140 -96c-22 0 -50 4 -66 8l10 53c15 -4 35 -7 53 -7c44 0 62 16 62 41c0 35 -27 46 -102 38v48h21c56 0 74 19 74 43
c0 19 -13 36 -47 36c-19 0 -39 -6 -53 -13l-14 48c22 10 54 16 86 16c76 0 105 -37 105 -77c0 -34 -14 -56 -46 -71c38 -5 57 -34 57 -67z" />
    <glyph glyph-name="threesuperior" unicode="&#xb3;" horiz-adv-x="306" 
d="M252 443c0 -62 -53 -95 -140 -95c-22 0 -50 4 -66 8l10 53c14 -4 35 -8 53 -8c43 0 61 16 61 41c0 35 -26 46 -101 38v48h21c56 0 74 19 74 43c0 19 -13 36 -47 36c-20 0 -39 -6 -53 -13l-14 48c22 10 54 16 86 16c75 0 105 -37 105 -77c0 -34 -14 -56 -46 -71
c37 -5 57 -34 57 -67z" />
    <glyph glyph-name="twosuperior" unicode="&#xb2;" horiz-adv-x="317" 
d="M266 356h-220v52l73 65c43 38 55 57 55 82c0 24 -17 43 -49 43c-18 0 -41 -7 -56 -19l-20 56c27 14 61 23 95 23c79 0 112 -43 112 -90c0 -37 -17 -68 -64 -109l-48 -41h122v-62z" />
    <glyph glyph-name="brokenbar" unicode="&#xa6;" horiz-adv-x="285" 
d="M177 385h-71v368h71v-368zM177 -247h-71v378h71v-378z" />
    <glyph glyph-name="minus" unicode="&#x2212;" 
d="M508 259h-466v78h466v-78z" />
    <glyph glyph-name="multiply" unicode="&#xd7;" 
d="M495 132l-55 -55l-168 168l-167 -168l-50 50l168 168l-168 167l55 55l167 -168l168 168l50 -50l-168 -167z" />
    <glyph glyph-name="Adieresis" unicode="&#xc4;" horiz-adv-x="615" 
d="M461 781c0 -28 -22 -50 -50 -50s-50 22 -50 50s22 50 50 50s50 -22 50 -50zM248 781c0 -28 -23 -50 -51 -50s-50 22 -50 50s22 50 50 50s51 -22 51 -50zM606 0h-103l-56 158h-287l-56 -158h-94l246 675h102zM423 231l-90 249c-12 33 -21 63 -29 92h-2
c-8 -29 -17 -59 -28 -91l-90 -250h239z" />
    <glyph glyph-name="Aring" unicode="&#xc5;" horiz-adv-x="615" 
d="M606 0h-103l-56 158h-287l-56 -158h-94l235 644c-30 16 -50 47 -50 87c0 62 51 110 113 110c64 0 114 -48 114 -110c0 -37 -22 -71 -53 -88zM363 731c0 31 -24 57 -55 57s-55 -26 -55 -57s24 -57 55 -57s55 26 55 57zM422 231l-87 242c-16 34 -23 66 -31 98h-2
c-8 -31 -18 -65 -31 -99l-87 -241h238z" />
    <glyph glyph-name="Ccedilla" unicode="&#xc7;" horiz-adv-x="583" 
d="M538 28c-51 -21 -117 -36 -185 -36c-217 0 -307 138 -307 329c0 206 102 360 330 360c52 0 107 -7 155 -21l-15 -84c-47 16 -99 26 -150 26c-154 0 -220 -118 -220 -266c0 -166 72 -262 229 -262c49 0 108 14 148 34zM357 -40c51 -67 36 -130 -21 -195h-73
c52 65 64 107 17 165z" />
    <glyph glyph-name="Eacute" unicode="&#xc9;" horiz-adv-x="501" 
d="M403 781l-190 -56l-18 52l182 74zM432 0h-347v675h347v-76h-255v-214h243v-74h-243v-234h255v-77z" />
    <glyph glyph-name="Ntilde" unicode="&#xd1;" horiz-adv-x="707" 
d="M522 808c-27 -47 -65 -73 -112 -73c-68 0 -89 52 -132 52c-24 0 -45 -15 -63 -45l-46 33c26 47 65 74 112 74c68 0 89 -52 132 -52c23 0 44 15 63 44zM622 0h-120l-257 418c-31 49 -55 95 -77 140c4 -72 7 -234 7 -341v-217h-90v675h121l251 -405c30 -48 58 -100 83 -148
c-4 83 -7 249 -7 361v192h89v-675z" />
    <glyph glyph-name="Odieresis" unicode="&#xd6;" horiz-adv-x="705" 
d="M509 781c0 -28 -22 -50 -50 -50s-51 22 -51 50s23 50 51 50s50 -22 50 -50zM295 781c0 -28 -22 -50 -50 -50s-50 22 -50 50s22 50 50 50s50 -22 50 -50zM663 345c0 -225 -144 -355 -320 -355c-203 0 -301 135 -301 340c0 225 144 355 320 355c182 0 301 -118 301 -340z
M565 334c0 173 -78 270 -213 270c-112 0 -212 -91 -212 -261c0 -161 68 -271 211 -271c110 0 214 88 214 262z" />
    <glyph glyph-name="Udieresis" unicode="&#xdc;" horiz-adv-x="693" 
d="M497 781c0 -28 -22 -50 -50 -50s-50 22 -50 50s22 50 50 50s50 -22 50 -50zM284 781c0 -28 -23 -50 -51 -50s-50 22 -50 50s22 50 50 50s51 -22 51 -50zM607 258c0 -177 -93 -268 -269 -268c-211 0 -253 117 -253 237v448h92v-441c0 -93 31 -168 167 -168
c118 0 173 49 173 185v424h90v-417z" />
    <glyph glyph-name="aacute" unicode="&#xe1;" horiz-adv-x="521" 
d="M437 0h-87c0 35 0 71 5 99h-2c-24 -61 -87 -108 -169 -108s-138 54 -138 134c0 107 109 171 299 171v33c0 69 -27 107 -109 107c-47 0 -104 -15 -144 -37l-19 73c48 20 114 35 177 35c144 0 185 -67 185 -164v-200c0 -47 1 -100 2 -143zM345 220v13
c-164 0 -211 -45 -211 -95c0 -44 30 -76 76 -76c81 0 135 80 135 158zM381 684l-150 -114l-39 48l140 126z" />
    <glyph glyph-name="agrave" unicode="&#xe0;" horiz-adv-x="521" 
d="M437 0h-87c0 35 0 71 5 99h-2c-24 -61 -87 -108 -169 -108s-138 54 -138 134c0 107 109 171 299 171v33c0 69 -27 107 -109 107c-47 0 -104 -15 -144 -37l-19 73c48 20 114 35 177 35c144 0 185 -67 185 -164v-200c0 -47 1 -100 2 -143zM345 220v13
c-164 0 -211 -45 -211 -95c0 -44 30 -76 76 -76c81 0 135 80 135 158zM325 619l-39 -49l-150 114l49 60z" />
    <glyph glyph-name="acircumflex" unicode="&#xe2;" horiz-adv-x="521" 
d="M437 0h-87c0 35 0 71 5 99h-2c-24 -61 -87 -108 -169 -108s-138 54 -138 134c0 107 109 171 299 171v33c0 69 -27 107 -109 107c-47 0 -104 -15 -144 -37l-19 73c48 20 114 35 177 35c144 0 185 -67 185 -164v-200c0 -47 1 -100 2 -143zM345 220v13
c-164 0 -211 -45 -211 -95c0 -44 30 -76 76 -76c81 0 135 80 135 158zM395 614l-40 -44l-99 85l-100 -85l-39 42l140 132z" />
    <glyph glyph-name="adieresis" unicode="&#xe4;" horiz-adv-x="521" 
d="M437 0h-87c0 35 0 71 5 99h-2c-24 -61 -87 -108 -169 -108s-138 54 -138 134c0 107 109 171 299 171v33c0 69 -27 107 -109 107c-47 0 -104 -15 -144 -37l-19 73c48 20 114 35 177 35c144 0 185 -67 185 -164v-200c0 -47 1 -100 2 -143zM345 220v13
c-164 0 -211 -45 -211 -95c0 -44 30 -76 76 -76c81 0 135 80 135 158zM404 654c0 -30 -23 -53 -53 -53s-54 23 -54 53s24 54 54 54s53 -24 53 -54zM212 654c0 -30 -23 -53 -53 -53s-54 23 -54 53s24 54 54 54s53 -24 53 -54z" />
    <glyph glyph-name="atilde" unicode="&#xe3;" horiz-adv-x="521" 
d="M437 0h-87c0 35 0 71 5 99h-2c-24 -61 -87 -108 -169 -108s-138 54 -138 134c0 107 109 171 299 171v33c0 69 -27 107 -109 107c-47 0 -104 -15 -144 -37l-19 73c48 20 114 35 177 35c144 0 185 -67 185 -164v-200c0 -47 1 -100 2 -143zM345 220v13
c-164 0 -211 -45 -211 -95c0 -44 30 -76 76 -76c81 0 135 80 135 158zM409 672c-26 -50 -63 -78 -109 -78c-65 0 -85 55 -127 55c-22 0 -42 -16 -59 -47l-45 36c26 49 63 77 109 77c65 0 85 -54 127 -54c22 0 42 15 60 46z" />
    <glyph glyph-name="aring" unicode="&#xe5;" horiz-adv-x="521" 
d="M437 0h-87c0 35 0 71 5 99h-2c-24 -61 -87 -108 -169 -108s-138 54 -138 134c0 107 109 171 299 171v33c0 69 -27 107 -109 107c-47 0 -104 -15 -144 -37l-19 73c48 20 114 35 177 35c144 0 185 -67 185 -164v-200c0 -47 1 -100 2 -143zM345 220v13
c-164 0 -211 -45 -211 -95c0 -44 30 -76 76 -76c81 0 135 80 135 158zM371 662c0 -60 -51 -109 -114 -109s-113 46 -113 109s52 110 113 110c64 0 114 -47 114 -110zM313 662c0 31 -25 57 -56 57s-55 -26 -55 -57s24 -56 55 -56s56 25 56 56z" />
    <glyph glyph-name="ccedilla" unicode="&#xe7;" horiz-adv-x="435" 
d="M407 19c-42 -17 -97 -27 -148 -27c-119 0 -218 57 -218 240c0 160 82 273 242 273c45 0 88 -8 122 -21l-17 -77c-31 13 -72 23 -113 23c-90 0 -139 -77 -139 -186c0 -97 31 -174 141 -174c42 0 82 8 116 24zM267 -40c51 -67 36 -130 -21 -195h-73c52 65 64 107 17 165z
" />
    <glyph glyph-name="eacute" unicode="&#xe9;" horiz-adv-x="508" 
d="M462 297c0 -12 -1 -26 -3 -46h-325c-4 -130 51 -187 157 -187c48 0 98 10 142 30l13 -72c-50 -20 -110 -31 -172 -31c-151 0 -233 80 -233 255c0 149 81 260 222 260c140 0 199 -95 199 -209zM370 315c2 76 -41 125 -111 125c-65 0 -112 -49 -122 -125h233zM386 684
l-150 -114l-39 48l140 126z" />
    <glyph glyph-name="egrave" unicode="&#xe8;" horiz-adv-x="508" 
d="M462 297c0 -12 -1 -26 -3 -46h-325c-4 -130 51 -187 157 -187c48 0 98 10 142 30l13 -72c-50 -20 -110 -31 -172 -31c-151 0 -233 80 -233 255c0 149 81 260 222 260c140 0 199 -95 199 -209zM370 315c2 76 -41 125 -111 125c-65 0 -112 -49 -122 -125h233zM329 619
l-39 -49l-150 114l49 60z" />
    <glyph glyph-name="ecircumflex" unicode="&#xea;" horiz-adv-x="508" 
d="M462 297c0 -12 -1 -26 -3 -46h-325c-4 -130 51 -187 157 -187c48 0 98 10 142 30l13 -72c-50 -20 -110 -31 -172 -31c-151 0 -233 80 -233 255c0 149 81 260 222 260c140 0 199 -95 199 -209zM370 315c2 76 -41 125 -111 125c-65 0 -112 -49 -122 -125h233zM399 614
l-40 -44l-99 85l-100 -85l-39 42l140 132z" />
    <glyph glyph-name="edieresis" unicode="&#xeb;" horiz-adv-x="508" 
d="M462 297c0 -12 -1 -26 -3 -46h-325c-4 -130 51 -187 157 -187c48 0 98 10 142 30l13 -72c-50 -20 -110 -31 -172 -31c-151 0 -233 80 -233 255c0 149 81 260 222 260c140 0 199 -95 199 -209zM370 315c2 76 -41 125 -111 125c-65 0 -112 -49 -122 -125h233zM412 654
c0 -30 -23 -53 -53 -53s-54 23 -54 53s24 54 54 54s53 -24 53 -54zM220 654c0 -30 -23 -53 -53 -53s-54 23 -54 53s24 54 54 54s53 -24 53 -54z" />
    <glyph glyph-name="iacute" unicode="&#xed;" horiz-adv-x="260" 
d="M175 0h-90v497h90v-497zM236 684l-150 -114l-39 48l140 126z" />
    <glyph glyph-name="igrave" unicode="&#xec;" horiz-adv-x="260" 
d="M175 0h-90v497h90v-497zM217 619l-39 -49l-150 114l49 60z" />
    <glyph glyph-name="icircumflex" unicode="&#xee;" horiz-adv-x="260" 
d="M175 0h-90v497h90v-497zM270 614l-40 -44l-99 85l-100 -85l-39 42l140 132z" />
    <glyph glyph-name="idieresis" unicode="&#xef;" horiz-adv-x="260" 
d="M175 0h-90v497h90v-497zM279 654c0 -30 -23 -53 -53 -53s-54 23 -54 53s24 54 54 54s53 -24 53 -54zM87 654c0 -30 -23 -53 -53 -53s-54 23 -54 53s24 54 54 54s53 -24 53 -54z" />
    <glyph glyph-name="ntilde" unicode="&#xf1;" horiz-adv-x="575" 
d="M491 0h-90v320c0 71 -19 112 -85 112c-82 0 -141 -84 -141 -194v-238h-90v497h87c0 -30 -2 -75 -8 -105h2c29 68 90 114 175 114c114 0 150 -71 150 -159v-347zM461 672c-26 -50 -63 -78 -109 -78c-65 0 -85 55 -127 55c-22 0 -42 -16 -59 -47l-45 36c26 49 63 77 109 77
c65 0 85 -54 127 -54c22 0 42 15 60 46z" />
    <glyph glyph-name="oacute" unicode="&#xf3;" horiz-adv-x="545" 
d="M505 257c0 -150 -96 -266 -243 -266c-135 0 -223 78 -223 253c0 146 92 262 242 262c127 0 224 -70 224 -249zM411 252c0 113 -46 179 -138 179c-72 0 -140 -55 -140 -178c0 -120 49 -186 140 -186c74 0 138 58 138 185zM401 684l-150 -114l-39 48l140 126z" />
    <glyph glyph-name="ograve" unicode="&#xf2;" horiz-adv-x="545" 
d="M505 257c0 -150 -96 -266 -243 -266c-135 0 -223 78 -223 253c0 146 92 262 242 262c127 0 224 -70 224 -249zM411 252c0 113 -46 179 -138 179c-72 0 -140 -55 -140 -178c0 -120 49 -186 140 -186c74 0 138 58 138 185zM347 619l-39 -49l-150 114l49 60z" />
    <glyph glyph-name="ocircumflex" unicode="&#xf4;" horiz-adv-x="545" 
d="M505 257c0 -150 -96 -266 -243 -266c-135 0 -223 78 -223 253c0 146 92 262 242 262c127 0 224 -70 224 -249zM411 252c0 113 -46 179 -138 179c-72 0 -140 -55 -140 -178c0 -120 49 -186 140 -186c74 0 138 58 138 185zM411 614l-40 -44l-99 85l-100 -85l-39 42l140 132
z" />
    <glyph glyph-name="odieresis" unicode="&#xf6;" horiz-adv-x="545" 
d="M505 257c0 -150 -96 -266 -243 -266c-135 0 -223 78 -223 253c0 146 92 262 242 262c127 0 224 -70 224 -249zM411 252c0 113 -46 179 -138 179c-72 0 -140 -55 -140 -178c0 -120 49 -186 140 -186c74 0 138 58 138 185zM422 654c0 -30 -23 -53 -53 -53s-54 23 -54 53
s24 54 54 54s53 -24 53 -54zM230 654c0 -30 -23 -53 -53 -53s-54 23 -54 53s24 54 54 54s53 -24 53 -54z" />
    <glyph glyph-name="otilde" unicode="&#xf5;" horiz-adv-x="545" 
d="M505 257c0 -150 -96 -266 -243 -266c-135 0 -223 78 -223 253c0 146 92 262 242 262c127 0 224 -70 224 -249zM411 252c0 113 -46 179 -138 179c-72 0 -140 -55 -140 -178c0 -120 49 -186 140 -186c74 0 138 58 138 185zM433 672c-26 -50 -63 -78 -109 -78
c-65 0 -85 55 -127 55c-22 0 -42 -16 -59 -47l-45 36c26 49 63 77 109 77c65 0 85 -54 127 -54c22 0 42 15 60 46z" />
    <glyph glyph-name="uacute" unicode="&#xfa;" horiz-adv-x="575" 
d="M490 0h-87c0 30 3 75 8 105h-2c-29 -68 -90 -114 -175 -114c-114 0 -149 71 -149 159v347h89v-320c0 -71 20 -112 85 -112c82 0 142 84 142 194v238h89v-497zM416 684l-150 -114l-39 48l140 126z" />
    <glyph glyph-name="ugrave" unicode="&#xf9;" horiz-adv-x="575" 
d="M490 0h-87c0 30 3 75 8 105h-2c-29 -68 -90 -114 -175 -114c-114 0 -149 71 -149 159v347h89v-320c0 -71 20 -112 85 -112c82 0 142 84 142 194v238h89v-497zM355 619l-39 -49l-150 114l49 60z" />
    <glyph glyph-name="ucircumflex" unicode="&#xfb;" horiz-adv-x="575" 
d="M490 0h-87c0 30 3 75 8 105h-2c-29 -68 -90 -114 -175 -114c-114 0 -149 71 -149 159v347h89v-320c0 -71 20 -112 85 -112c82 0 142 84 142 194v238h89v-497zM424 614l-40 -44l-99 85l-100 -85l-39 42l140 132z" />
    <glyph glyph-name="udieresis" unicode="&#xfc;" horiz-adv-x="575" 
d="M490 0h-87c0 30 3 75 8 105h-2c-29 -68 -90 -114 -175 -114c-114 0 -149 71 -149 159v347h89v-320c0 -71 20 -112 85 -112c82 0 142 84 142 194v238h89v-497zM432 654c0 -30 -23 -53 -53 -53s-54 23 -54 53s24 54 54 54s53 -24 53 -54zM240 654c0 -30 -23 -53 -53 -53
s-54 23 -54 53s24 54 54 54s53 -24 53 -54z" />
    <glyph glyph-name="degree" unicode="&#xb0;" horiz-adv-x="376" 
d="M319 609c0 -80 -67 -128 -137 -128c-79 0 -129 49 -129 126c0 81 68 128 135 128c90 0 131 -58 131 -126zM249 608c0 31 -16 69 -63 69c-35 0 -62 -28 -62 -69c0 -43 25 -68 61 -68c37 0 64 28 64 68z" />
    <glyph glyph-name="registered" unicode="&#xae;" horiz-adv-x="562" 
d="M501 529c0 -120 -100 -219 -220 -219c-124 0 -221 96 -221 219c0 121 99 218 221 218c123 0 220 -95 220 -218zM441 527c0 89 -71 164 -160 164s-160 -72 -160 -161s71 -164 160 -164s160 73 160 161zM373 416h-60l-53 95h-4v-95h-49v228h79c56 0 78 -24 78 -60
c0 -38 -21 -60 -53 -66c5 -5 12 -17 19 -29zM312 578c0 19 -9 28 -35 28h-21v-63h14c31 0 42 18 42 35z" />
    <glyph glyph-name="copyright" unicode="&#xa9;" horiz-adv-x="756" 
d="M712 336c0 -186 -150 -336 -336 -336c-190 0 -336 148 -336 334s150 335 336 335c187 0 336 -147 336 -333zM641 334c0 146 -118 267 -265 267c-146 0 -264 -118 -264 -265s118 -268 264 -268c147 0 265 119 265 266zM475 175c-30 -11 -64 -17 -99 -17
c-110 0 -158 72 -158 172c0 96 48 183 174 183c30 0 57 -5 79 -13l-8 -64c-20 10 -46 16 -72 16c-70 0 -96 -51 -96 -119c0 -71 29 -111 92 -111c28 0 54 5 78 15z" />
    <glyph glyph-name="trademark" unicode="&#x2122;" horiz-adv-x="699" 
d="M647 394h-69l-22 147l-7 54l-12 -46l-45 -155h-69l-44 157l-11 44l-3 -37l-24 -164h-64l44 281h86l45 -154l10 -46l9 42l47 158h86zM260 620h-73v-226h-69v226h-74v55h216v-55z" />
    <glyph glyph-name="notequal" unicode="&#x2260;" 
d="M498 175h-232l-56 -139h-80l56 139h-134v74h163l38 96h-201v75h230l57 141h80l-57 -141h136v-75h-165l-39 -96h204v-74z" />
    <glyph glyph-name="infinity" unicode="&#x221e;" horiz-adv-x="975" 
d="M918 303c0 -93 -67 -172 -186 -172c-80 0 -161 49 -248 114c-76 -57 -161 -114 -249 -114c-120 0 -178 75 -178 163c0 96 72 172 183 172c84 0 166 -50 251 -114c75 56 162 114 248 114c117 0 179 -73 179 -163zM828 298c0 52 -33 90 -94 90c-51 0 -111 -39 -176 -88
c68 -51 126 -90 179 -90c59 0 91 41 91 88zM417 297c-68 51 -126 91 -179 91c-59 0 -91 -42 -91 -89c0 -52 33 -89 94 -89c52 0 110 38 176 87z" />
    <glyph glyph-name="plusminus" unicode="&#xb1;" 
d="M508 336h-190v-197h-86v197h-190v74h190v196h86v-196h190v-74zM506 0h-462v75h462v-75z" />
    <glyph glyph-name="lessequal" unicode="&#x2264;" 
d="M470 193l-52 -66l-361 247l360 249l53 -62l-286 -186zM482 0h-414v75h414v-75z" />
    <glyph glyph-name="greaterequal" unicode="&#x2265;" 
d="M493 376l-360 -249l-53 62l286 186l-286 183l52 65zM482 0h-414v75h414v-75z" />
    <glyph glyph-name="mu" unicode="&#xb5;" horiz-adv-x="628" 
d="M607 65c-19 -41 -58 -74 -116 -74c-66 0 -83 55 -74 108h-1c-24 -63 -84 -107 -156 -107c-40 0 -70 10 -91 29l14 -268h-95v744h90v-314c0 -72 21 -117 91 -117c77 0 135 80 135 176v255h90v-351c0 -66 8 -81 30 -81c19 0 35 18 43 36z" />
    <glyph glyph-name="partialdiff" unicode="&#x2202;" horiz-adv-x="637" 
d="M564 409c0 -117 -26 -239 -92 -323c-44 -56 -114 -94 -194 -94c-133 0 -204 81 -204 208c0 137 97 239 240 239c77 0 132 -38 156 -94c0 33 0 59 -1 84c-8 157 -100 233 -221 232l10 74c185 -2 306 -123 306 -326zM440 238c0 72 -45 126 -131 126
c-85 0 -145 -68 -145 -156c0 -92 52 -138 126 -138c86 0 150 73 150 168z" />
    <glyph glyph-name="summation" unicode="&#x2211;" horiz-adv-x="609" 
d="M553 -247h-517v70l309 427l-290 410v70h483v-77h-371l284 -399l-307 -421h409v-80z" />
    <glyph glyph-name="product" unicode="&#x220f;" horiz-adv-x="784" 
d="M739 653h-105v-900h-87v900h-310v-900h-86v900h-106v77h694v-77z" />
    <glyph glyph-name="pi" unicode="&#x3c0;" horiz-adv-x="672" 
d="M621 1c-25 -6 -60 -10 -94 -10c-86 0 -109 45 -109 138v296h-183v-425h-86v425h-109v72h573v-72h-109v-229c0 -120 8 -137 57 -137c19 0 38 4 54 8z" />
    <glyph glyph-name="integral" unicode="&#x222b;" horiz-adv-x="339" 
d="M320 651c-13 4 -33 8 -50 8c-51 0 -72 -26 -72 -163c0 -159 12 -281 12 -492c0 -190 -50 -260 -154 -260c-17 0 -37 3 -53 6v79c14 -4 33 -7 49 -7c51 0 72 26 72 160c0 151 -11 282 -11 494c0 192 55 260 156 260c16 0 35 -2 51 -6v-79z" />
    <glyph glyph-name="Omega" unicode="&#x3a9;" horiz-adv-x="749" 
d="M680 0h-234v69c86 57 139 144 139 278c0 148 -71 266 -209 266c-133 0 -217 -107 -217 -262c0 -130 42 -214 142 -281v-70h-236v68h145c-90 59 -140 158 -140 281c0 196 124 336 311 336c173 0 296 -115 296 -327c0 -130 -59 -234 -145 -290h148v-68z" />
    <glyph glyph-name="logicalnot" unicode="&#xac;" 
d="M482 103h-78v157h-362v75h440v-232z" />
    <glyph glyph-name="radical" unicode="&#x221a;" horiz-adv-x="608" 
d="M579 758l-234 -758h-104l-148 429h-92v68h165l95 -289c12 -37 24 -75 34 -114h2c8 38 17 73 27 106l158 558h97z" />
    <glyph glyph-name="approxequal" unicode="&#x2248;" 
d="M504 373c-31 -31 -74 -58 -129 -58c-94 0 -120 60 -202 60c-41 0 -75 -23 -98 -42l-29 62c31 29 78 57 131 57c91 0 129 -61 201 -61c35 0 65 17 96 44zM504 194c-31 -27 -78 -53 -129 -53c-97 0 -123 60 -202 60c-41 0 -74 -23 -97 -42l-30 62c29 26 74 56 128 56
c92 0 124 -61 205 -61c34 0 65 14 96 40z" />
    <glyph glyph-name="Delta" unicode="&#x394;" horiz-adv-x="730" 
d="M698 0h-665l283 700h95zM565 81l-206 513l-201 -513h407z" />
    <glyph glyph-name="nbspace" unicode="&#xa0;" horiz-adv-x="218" 
 />
    <glyph glyph-name="Agrave" unicode="&#xc0;" horiz-adv-x="615" 
d="M361 777l-17 -52l-191 56l26 70zM606 0h-103l-56 158h-287l-56 -158h-94l246 675h102zM423 231l-90 249c-12 33 -21 63 -29 92h-2c-8 -29 -17 -59 -28 -91l-90 -250h239z" />
    <glyph glyph-name="Atilde" unicode="&#xc3;" horiz-adv-x="615" 
d="M481 808c-27 -47 -65 -73 -112 -73c-67 0 -89 52 -132 52c-23 0 -45 -15 -63 -45l-46 33c26 47 65 74 112 74c68 0 89 -52 133 -52c23 0 44 15 62 44zM606 0h-103l-56 158h-287l-56 -158h-94l246 675h102zM423 231l-90 249c-12 33 -21 63 -29 92h-2
c-8 -29 -17 -59 -28 -91l-90 -250h239z" />
    <glyph glyph-name="Otilde" unicode="&#xd5;" horiz-adv-x="705" 
d="M526 808c-27 -47 -65 -73 -112 -73c-68 0 -89 52 -132 52c-23 0 -45 -15 -63 -45l-46 33c26 47 65 74 112 74c68 0 89 -52 132 -52c24 0 45 15 63 44zM663 345c0 -225 -144 -355 -320 -355c-203 0 -301 135 -301 340c0 225 144 355 320 355c182 0 301 -118 301 -340z
M565 334c0 173 -78 270 -213 270c-112 0 -212 -91 -212 -261c0 -161 68 -271 211 -271c110 0 214 88 214 262z" />
    <glyph glyph-name="divide" unicode="&#xf7;" 
d="M334 498c0 -33 -27 -60 -60 -60c-34 0 -61 27 -61 60s27 60 61 60c33 0 60 -27 60 -60zM508 260h-466v75h466v-75zM334 96c0 -34 -27 -61 -60 -61c-34 0 -61 27 -61 61c0 33 27 60 61 60c33 0 60 -27 60 -60z" />
    <glyph glyph-name="lozenge" unicode="&#x25ca;" horiz-adv-x="619" 
d="M585 335l-244 -344h-57l-250 350l246 343h55zM488 330l-184 255l-171 -242l182 -252z" />
    <glyph glyph-name="ydieresis" unicode="&#xff;" horiz-adv-x="480" 
d="M472 497l-204 -539c-60 -160 -123 -213 -234 -213c-18 0 -42 3 -58 6l10 80c16 -5 41 -8 60 -8c51 0 95 25 131 123l20 54l-188 497h102l94 -258c16 -45 27 -84 38 -123h2c9 35 30 98 49 153l80 228h98zM389 654c0 -30 -23 -53 -53 -53s-54 23 -54 53s24 54 54 54
s53 -24 53 -54zM197 654c0 -30 -23 -53 -53 -53s-54 23 -54 53s24 54 54 54s53 -24 53 -54z" />
    <glyph glyph-name="Ydieresis" unicode="&#x178;" horiz-adv-x="537" 
d="M422 781c0 -28 -22 -50 -50 -50s-50 22 -50 50s22 50 50 50s50 -22 50 -50zM208 781c0 -28 -22 -50 -50 -50s-50 22 -50 50s22 50 50 50s50 -22 50 -50zM527 675l-215 -432v-243h-92v243l-211 432h101l107 -228c19 -40 36 -79 51 -117h1c16 41 37 85 58 129l104 216h96z
" />
    <glyph glyph-name="Euro" unicode="&#x20ac;" 
d="M514 24c-50 -22 -112 -34 -164 -34c-145 0 -230 72 -251 232h-88v60h83c-1 10 -1 21 -1 32c0 19 1 39 2 57h-84v60h93c25 134 106 229 265 229c47 0 100 -12 136 -27l-22 -72c-33 15 -80 26 -126 26c-97 0 -142 -68 -160 -156h190v-60h-200c0 -15 -1 -30 -1 -47
c0 -14 0 -29 1 -42h200v-60h-193c17 -105 69 -156 173 -156c40 0 87 11 126 28z" />
    <glyph glyph-name="Acircumflex" unicode="&#xc2;" horiz-adv-x="615" 
d="M464 774l-27 -50l-135 63l-132 -63l-23 48l157 85zM606 0h-103l-56 158h-287l-56 -158h-94l246 675h102zM423 231l-90 249c-12 33 -21 63 -29 92h-2c-8 -29 -17 -59 -28 -91l-90 -250h239z" />
    <glyph glyph-name="Ecircumflex" unicode="&#xca;" horiz-adv-x="501" 
d="M414 774l-26 -50l-136 63l-131 -63l-24 48l157 85zM432 0h-347v675h347v-76h-255v-214h243v-74h-243v-234h255v-77z" />
    <glyph glyph-name="Aacute" unicode="&#xc1;" horiz-adv-x="615" 
d="M446 781l-190 -56l-18 52l182 74zM606 0h-103l-56 158h-287l-56 -158h-94l246 675h102zM423 231l-90 249c-12 33 -21 63 -29 92h-2c-8 -29 -17 -59 -28 -91l-90 -250h239z" />
    <glyph glyph-name="Edieresis" unicode="&#xcb;" horiz-adv-x="501" 
d="M410 781c0 -28 -22 -50 -50 -50s-50 22 -50 50s22 50 50 50s50 -22 50 -50zM196 781c0 -28 -22 -50 -50 -50s-50 22 -50 50s22 50 50 50s50 -22 50 -50zM432 0h-347v675h347v-76h-255v-214h243v-74h-243v-234h255v-77z" />
    <glyph glyph-name="Egrave" unicode="&#xc8;" horiz-adv-x="501" 
d="M322 777l-18 -52l-190 56l26 70zM432 0h-347v675h347v-76h-255v-214h243v-74h-243v-234h255v-77z" />
    <glyph glyph-name="Iacute" unicode="&#xcd;" horiz-adv-x="262" 
d="M267 781l-190 -56l-17 52l181 74zM177 0h-92v675h92v-675z" />
    <glyph glyph-name="Icircumflex" unicode="&#xce;" horiz-adv-x="262" 
d="M291 774l-27 -50l-135 63l-132 -63l-23 48l157 85zM177 0h-92v675h92v-675z" />
    <glyph glyph-name="Idieresis" unicode="&#xcf;" horiz-adv-x="262" 
d="M287 781c0 -28 -22 -50 -50 -50s-50 22 -50 50s22 50 50 50s50 -22 50 -50zM73 781c0 -28 -22 -50 -50 -50s-50 22 -50 50s22 50 50 50s50 -22 50 -50zM177 0h-92v675h92v-675z" />
    <glyph glyph-name="Igrave" unicode="&#xcc;" horiz-adv-x="262" 
d="M197 777l-17 -52l-190 56l25 70zM177 0h-92v675h92v-675z" />
    <glyph glyph-name="Oacute" unicode="&#xd3;" horiz-adv-x="705" 
d="M501 781l-190 -56l-18 52l182 74zM663 345c0 -225 -144 -355 -320 -355c-203 0 -301 135 -301 340c0 225 144 355 320 355c182 0 301 -118 301 -340zM565 334c0 173 -78 270 -213 270c-112 0 -212 -91 -212 -261c0 -161 68 -271 211 -271c110 0 214 88 214 262z" />
    <glyph glyph-name="Ocircumflex" unicode="&#xd4;" horiz-adv-x="705" 
d="M520 774l-27 -50l-135 63l-131 -63l-24 48l157 85zM663 345c0 -225 -144 -355 -320 -355c-203 0 -301 135 -301 340c0 225 144 355 320 355c182 0 301 -118 301 -340zM565 334c0 173 -78 270 -213 270c-112 0 -212 -91 -212 -261c0 -161 68 -271 211 -271
c110 0 214 88 214 262z" />
    <glyph glyph-name="apple" unicode="&#xf8ff;" horiz-adv-x="1041" 
d="M152 665c14 15 27 29 43 42l83 -96c-10 -8 -21 -20 -31 -29zM543 696c-15 1 -30 1 -44 0l-8 124c20 1 41 1 60 0zM764 612l82 94c16 -13 30 -27 43 -43l-94 -81c-9 10 -21 22 -31 30zM1019 369c2 -21 2 -41 0 -61l-126 9c1 13 1 30 0 43zM763 338
c0 -69 -29 -130 -68 -168v-77l-16 -5l32 -74l-30 -8l30 -72l-31 -7l10 -25l-29 -68h-51c-4 -24 -42 -44 -89 -44c-48 0 -85 20 -88 44h-52l-50 122l31 8l-31 74l34 9l-19 46v78c-39 40 -67 100 -67 167c0 134 107 242 242 242c133 0 242 -108 242 -242zM397 192h58l-16 137
c-17 -4 -27 -9 -36 -12c-19 -6 -20 42 -8 46c38 11 83 20 126 20c45 0 89 -9 128 -20c10 -3 10 -52 -9 -46c-10 5 -22 8 -39 12l-14 -137h59c35 31 66 83 66 146c0 106 -86 192 -191 192c-106 0 -192 -86 -192 -192c0 -56 24 -110 68 -146zM564 335c-17 3 -29 3 -43 3
c-13 0 -28 0 -45 -3l15 -143h60zM646 151h-251v-54l16 -38l235 59v33zM649 36l-16 41l-241 -62l16 -39zM650 -43l-16 37l-242 -61l26 -62h207l14 32l-7 14l-74 -19l-12 33zM510 357v1h-2v6h-1v-7h3zM514 362h-1v-3c0 -2 -1 -1 -1 0v3h-1v-3c0 -3 3 -2 3 0v3zM518 357v1
c-2 -1 -2 4 0 3v1c-3 1 -4 -6 0 -5zM522 355c-2 3 -2 7 0 10c-3 0 -3 -10 0 -10zM525 358v-1h1v3c0 2 -2 3 -4 1c1 0 2 1 3 -1c-3 0 -5 -5 0 -2zM525 359c-2 1 -3 -3 0 0zM528 357c6 0 -1 4 2 4v1c-6 0 2 -4 -2 -4v-1zM531 355c3 0 3 10 0 10c2 -3 2 -7 0 -10zM22 369
l128 -9c-1 -14 -1 -30 0 -44l-128 -9c-1 21 -1 42 0 62z" />
    <glyph glyph-name="Ograve" unicode="&#xd2;" horiz-adv-x="705" 
d="M419 777l-17 -52l-191 56l26 70zM663 345c0 -225 -144 -355 -320 -355c-203 0 -301 135 -301 340c0 225 144 355 320 355c182 0 301 -118 301 -340zM565 334c0 173 -78 270 -213 270c-112 0 -212 -91 -212 -261c0 -161 68 -271 211 -271c110 0 214 88 214 262z" />
    <glyph glyph-name="Uacute" unicode="&#xda;" horiz-adv-x="693" 
d="M489 781l-190 -56l-18 52l182 74zM607 258c0 -177 -93 -268 -269 -268c-211 0 -253 117 -253 237v448h92v-441c0 -93 31 -168 167 -168c118 0 173 49 173 185v424h90v-417z" />
    <glyph glyph-name="Ucircumflex" unicode="&#xdb;" horiz-adv-x="693" 
d="M505 774l-26 -50l-136 63l-131 -63l-24 48l157 85zM607 258c0 -177 -93 -268 -269 -268c-211 0 -253 117 -253 237v448h92v-441c0 -93 31 -168 167 -168c118 0 173 49 173 185v424h90v-417z" />
    <glyph glyph-name="Ugrave" unicode="&#xd9;" horiz-adv-x="693" 
d="M410 777l-17 -52l-190 56l26 70zM607 258c0 -177 -93 -268 -269 -268c-211 0 -253 117 -253 237v448h92v-441c0 -93 31 -168 167 -168c118 0 173 49 173 185v424h90v-417z" />
    <glyph glyph-name="Eth" unicode="&#xd0;" horiz-adv-x="687" 
d="M641 345c0 -232 -155 -349 -376 -349c-68 0 -120 4 -170 4v312h-94v70h94v292c53 1 128 4 201 4c217 0 345 -101 345 -333zM545 338c0 173 -82 265 -257 265c-36 0 -76 -2 -102 -3v-218h140v-70h-140v-234c8 -1 62 -4 90 -4c158 0 269 81 269 264z" />
    <glyph glyph-name="Grave" unicode="&#xf6ce;" horiz-adv-x="369" 
d="M282 777l-18 -52l-190 56l26 70z" />
    <glyph glyph-name="Acute" unicode="&#xf6c9;" horiz-adv-x="389" 
d="M296 781l-190 -56l-18 52l182 74z" />
    <glyph glyph-name="Dieresis" unicode="&#xf6cb;" horiz-adv-x="546" 
d="M420 781c0 -28 -22 -50 -50 -50s-50 22 -50 50s22 50 50 50s50 -22 50 -50zM207 781c0 -28 -23 -50 -51 -50s-50 22 -50 50s22 50 50 50s51 -22 51 -50z" />
    <glyph glyph-name="Circumflex" horiz-adv-x="433" 
d="M374 774l-27 -50l-135 63l-132 -63l-23 48l157 85z" />
    <glyph glyph-name="Tilde" horiz-adv-x="496" 
d="M433 808c-27 -47 -65 -73 -112 -73c-68 0 -89 52 -132 52c-24 0 -45 -15 -63 -45l-46 33c26 47 65 74 112 74c68 0 89 -52 132 -52c23 0 44 15 63 44z" />
    <glyph glyph-name="Caron" unicode="&#xf6ca;" horiz-adv-x="433" 
d="M371 809l-157 -85l-160 83l27 50l135 -63l132 63z" />
    <glyph glyph-name="uni20AC" 
d="M514 24c-50 -22 -112 -34 -164 -34c-145 0 -230 72 -251 232h-88v60h83c-1 10 -1 21 -1 32c0 19 1 39 2 57h-84v60h93c25 134 106 229 265 229c47 0 100 -12 136 -27l-22 -72c-33 15 -80 26 -126 26c-97 0 -142 -68 -160 -156h190v-60h-200c0 -15 -1 -30 -1 -47
c0 -14 0 -29 1 -42h200v-60h-193c17 -105 69 -156 173 -156c40 0 87 11 126 28z" />
    </font>
</defs>
</svg>
