<?xml version="1.0" standalone="no"?>
<!DOCTYPE svg PUBLIC "-//W3C//DTD SVG 1.1//EN" "http://www.w3.org/Graphics/SVG/1.1/DTD/svg11.dtd" >
<svg xmlns="http://www.w3.org/2000/svg" xmlns:xlink="http://www.w3.org/1999/xlink" version="1.1">
<metadata>
Created by FontForge 20161003 at Tue Jan 23 09:59:39 2018
 By www-data
Copyright Copr. 1999, Luc[as] de Groot &#60;www.FontFabrik.com&#62;. All rights reserved. Published by FontShop International &#60;www.fontfont.de&#62;
</metadata>
<defs>
<font id="TheSans-B7Bold" horiz-adv-x="550" >
  <font-face 
    font-family="TheSans"
    font-weight="500"
    font-stretch="normal"
    units-per-em="1000"
    panose-1="0 0 0 0 0 0 0 0 0 0"
    ascent="800"
    descent="-200"
    x-height="497"
    cap-height="675"
    bbox="-66 -251 1030.39 864"
    underline-thickness="102"
    underline-position="-195"
    stemh="99"
    stemv="123"
    unicode-range="U+0020-FB02"
  />
<missing-glyph 
 />
    <glyph glyph-name=".notdef" 
 />
    <glyph glyph-name="space" unicode=" " horiz-adv-x="218" 
 />
    <glyph glyph-name="exclam" unicode="!" horiz-adv-x="321" 
d="M244 708l-19 -520h-110l-21 520h150zM247 65c0 -43 -34 -76 -79 -76c-44 0 -78 33 -78 76c0 42 34 76 78 76c45 0 79 -34 79 -76z" />
    <glyph glyph-name="quotedbl" unicode="&#x22;" horiz-adv-x="405" 
d="M361 702l-17 -254h-95l-16 254h128zM172 702l-16 -254h-96l-16 254h128z" />
    <glyph glyph-name="numbersign" unicode="#" 
d="M523 396h-85l-13 -137h75v-88h-84l-19 -171h-93l19 171h-127l-18 -171h-93l18 171h-76v88h85l14 137h-76v87h85l18 167h93l-18 -167h127l17 167h93l-17 -167h75v-87zM345 396h-126l-14 -137h127z" />
    <glyph glyph-name="dollar" unicode="$" 
d="M473 209c0 -89 -62 -164 -165 -188v-106h-92v100c-45 1 -83 5 -121 12l10 115c39 -14 87 -21 126 -21c63 0 107 24 107 75c0 107 -266 60 -266 263c0 86 62 157 157 176v95h91v-89c35 -1 71 -4 104 -12l-11 -108c-39 12 -78 17 -110 17c-73 0 -100 -32 -100 -67
c0 -100 270 -64 270 -262z" />
    <glyph glyph-name="percent" unicode="%" horiz-adv-x="760" 
d="M722 154c0 -99 -69 -165 -157 -165c-97 0 -148 59 -148 156c0 96 67 163 156 163c92 0 149 -51 149 -154zM669 613l-501 -635l-80 57l501 635zM343 508c0 -99 -68 -166 -157 -166c-97 0 -148 60 -148 157c0 96 68 162 157 162c91 0 148 -50 148 -153zM625 148
c0 58 -18 79 -55 79c-32 0 -56 -28 -56 -77c0 -59 20 -81 57 -81c30 0 54 29 54 79zM247 502c0 58 -19 79 -56 79c-31 0 -55 -29 -55 -78c0 -58 20 -80 56 -80c31 0 55 29 55 79z" />
    <glyph glyph-name="ampersand" unicode="&#x26;" horiz-adv-x="797" 
d="M755 74l-84 -97c-45 31 -102 72 -137 100c-64 -50 -152 -88 -260 -88c-156 0 -227 91 -227 198c0 87 51 149 127 208c-61 72 -85 120 -85 178c0 89 70 165 199 165c115 0 178 -59 178 -147c0 -70 -37 -128 -119 -193c48 -48 117 -110 181 -160v-1c40 61 63 141 60 221
h127c2 -105 -30 -209 -91 -290c44 -33 95 -70 131 -94zM340 582c0 33 -19 60 -62 60c-37 0 -63 -25 -63 -62c0 -28 15 -61 57 -110c42 36 68 70 68 112zM440 147c-68 55 -145 125 -191 172c-49 -42 -69 -78 -69 -116c0 -55 43 -105 116 -105c59 0 108 22 144 49z" />
    <glyph glyph-name="quoteright" unicode="&#x2019;" horiz-adv-x="267" 
d="M136 747c94 0 138 -159 -48 -322l-52 47c68 73 72 117 40 154c-37 44 -10 121 60 121z" />
    <glyph glyph-name="parenleft" unicode="(" horiz-adv-x="306" 
d="M297 -170l-97 -45c-112 176 -148 340 -148 500c0 157 39 330 149 502l93 -43c-75 -134 -116 -291 -116 -454c0 -169 40 -323 119 -460z" />
    <glyph glyph-name="parenright" unicode=")" horiz-adv-x="306" 
d="M256 288c0 -158 -39 -331 -149 -503l-93 43c76 134 117 291 117 455c0 169 -40 323 -118 460l97 44c110 -176 146 -339 146 -499z" />
    <glyph glyph-name="asterisk" unicode="*" horiz-adv-x="384" 
d="M350 532l-45 -79l-85 68l16 -108h-91l16 108l-86 -68l-44 78l101 40l-101 40l45 79l85 -68l-16 108h91l-16 -108l85 68l45 -78l-101 -40z" />
    <glyph glyph-name="plus" unicode="+" 
d="M511 244h-176v-186h-121v186h-175v107h175v185h121v-185h176v-107z" />
    <glyph glyph-name="comma" unicode="," horiz-adv-x="258" 
d="M128 149c94 0 138 -159 -48 -322l-53 47c69 73 73 116 41 153c-37 45 -10 122 60 122z" />
    <glyph glyph-name="hyphen" unicode="-" horiz-adv-x="334" 
d="M290 226h-246v103h246v-103z" />
    <glyph glyph-name="period" unicode="." horiz-adv-x="258" 
d="M210 71c0 -45 -36 -82 -81 -82s-82 37 -82 82c0 44 37 81 82 81s81 -37 81 -81z" />
    <glyph glyph-name="slash" unicode="/" horiz-adv-x="463" 
d="M468 757l-353 -918h-126l350 918h129z" />
    <glyph glyph-name="zero" unicode="0" 
d="M514 330c0 -241 -115 -341 -245 -341c-146 0 -234 78 -234 339c0 227 101 333 245 333c148 0 234 -86 234 -331zM376 326c0 183 -33 227 -102 227c-59 0 -101 -49 -101 -221c0 -181 28 -233 102 -233c64 0 101 58 101 227z" />
    <glyph glyph-name="one" unicode="1" 
d="M504 0h-438v115h163v403l-145 -57l-21 121l200 68h99v-535h142v-115z" />
    <glyph glyph-name="two" unicode="2" 
d="M493 0h-442v104l98 96c153 150 179 194 179 247c0 55 -38 97 -109 97c-54 0 -104 -22 -138 -46l-25 114c50 28 118 49 191 49c154 0 222 -92 222 -192c0 -86 -34 -152 -162 -273l-79 -74v-1c47 1 112 2 185 2h80v-123z" />
    <glyph glyph-name="three" unicode="3" 
d="M484 207c0 -138 -117 -218 -289 -218c-49 0 -98 7 -129 16l12 110c38 -13 78 -19 125 -19c98 0 143 41 143 97c0 55 -44 92 -142 92c-37 0 -67 -2 -102 -6v99h29c122 0 203 30 203 99c0 48 -37 78 -108 78c-55 0 -102 -14 -139 -33l-12 108c50 19 108 31 177 31
c146 0 216 -67 216 -160c0 -75 -42 -125 -113 -146l-1 -3c76 -9 130 -71 130 -145z" />
    <glyph glyph-name="four" unicode="4" 
d="M529 141h-90v-141h-126v141h-283l-12 106l247 403h174v-394h90v-115zM315 256v266h-1l-167 -268c44 2 137 2 168 2z" />
    <glyph glyph-name="five" unicode="5" 
d="M489 217c0 -139 -115 -228 -286 -228c-47 0 -86 5 -124 14v115c39 -12 79 -19 133 -19c87 0 136 40 136 105c0 64 -57 98 -148 98c-44 0 -84 -3 -112 -8v356h373v-120h-252v-128c12 1 27 1 39 1c155 0 241 -78 241 -186z" />
    <glyph glyph-name="six" unicode="6" 
d="M515 223c0 -146 -95 -234 -237 -234c-146 0 -238 93 -238 284c0 260 135 387 341 387c25 0 54 -1 75 -4v-111c-27 5 -52 7 -82 7c-111 0 -171 -59 -197 -161c-3 -9 -6 -22 -9 -40h1c31 40 81 63 143 63c132 0 203 -86 203 -191zM386 203c0 66 -36 106 -105 106
c-67 0 -106 -51 -106 -99c0 -66 37 -117 110 -117c64 0 101 46 101 110z" />
    <glyph glyph-name="seven" unicode="7" 
d="M499 540c-91 -174 -172 -381 -222 -540h-147c57 174 144 383 221 527c-29 -1 -137 -2 -215 -2h-86v125h449v-110z" />
    <glyph glyph-name="eight" unicode="8" 
d="M509 179c0 -123 -110 -190 -241 -190c-140 0 -228 66 -228 170c0 78 56 126 120 166c-63 35 -104 80 -104 153c0 110 94 183 226 183c133 0 212 -68 212 -162c0 -71 -48 -118 -106 -155c63 -35 121 -80 121 -165zM365 488c0 43 -32 74 -92 74c-58 0 -88 -34 -88 -73
c0 -44 33 -68 96 -98c47 27 84 55 84 97zM377 167c0 55 -51 82 -112 109c-50 -29 -92 -58 -92 -107c0 -45 36 -78 106 -78c56 0 98 29 98 76z" />
    <glyph glyph-name="nine" unicode="9" 
d="M508 377c0 -263 -136 -387 -340 -387c-28 0 -62 2 -92 7v113c33 -8 67 -12 100 -12c108 0 168 53 192 154c3 14 6 24 9 39h-1c-31 -35 -79 -56 -139 -56c-131 0 -203 84 -203 194c0 144 99 232 237 232c144 0 237 -89 237 -284zM370 440c0 68 -37 117 -108 117
c-63 0 -100 -48 -100 -109c0 -67 37 -108 103 -108c68 0 105 46 105 100z" />
    <glyph glyph-name="colon" unicode=":" horiz-adv-x="298" 
d="M242 354c0 -45 -36 -82 -81 -82s-82 37 -82 82c0 44 37 81 82 81s81 -37 81 -81zM242 71c0 -45 -36 -82 -81 -82s-82 37 -82 82c0 44 37 81 82 81s81 -37 81 -81z" />
    <glyph glyph-name="semicolon" unicode=";" horiz-adv-x="298" 
d="M242 354c0 -45 -36 -82 -81 -82s-82 37 -82 82c0 44 37 81 82 81s81 -37 81 -81zM160 149c95 0 139 -159 -47 -322l-53 47c68 73 72 116 41 153c-37 45 -10 122 59 122z" />
    <glyph glyph-name="less" unicode="&#x3c;" 
d="M466 93l-84 -87l-319 295l318 294l84 -84l-237 -209z" />
    <glyph glyph-name="equal" unicode="=" 
d="M497 341h-444v103h444v-103zM497 150h-444v103h444v-103z" />
    <glyph glyph-name="greater" unicode="&#x3e;" 
d="M487 300l-318 -294l-84 84l237 209l-238 209l84 87z" />
    <glyph glyph-name="question" unicode="?" horiz-adv-x="451" 
d="M404 513c0 -168 -198 -166 -151 -325h-124c-64 189 135 210 135 311c0 60 -74 98 -197 102l16 116c220 -5 321 -101 321 -204zM271 65c0 -43 -34 -76 -78 -76s-78 33 -78 76c0 42 34 76 78 76s78 -34 78 -76z" />
    <glyph glyph-name="at" unicode="@" horiz-adv-x="970" 
d="M881 413c0 -186 -103 -283 -241 -283c-74 0 -107 43 -105 96h-3c-21 -43 -75 -96 -141 -96c-63 0 -101 48 -101 143c0 148 74 267 234 267c46 0 93 -9 122 -20l-35 -198c-12 -67 3 -92 44 -92c62 0 111 53 111 177c0 116 -67 227 -250 227c-178 0 -320 -137 -320 -341
c0 -168 90 -270 284 -270c58 0 118 10 175 29l19 -100c-66 -22 -148 -34 -210 -34c-250 0 -384 142 -384 362c0 265 196 456 443 456c238 0 358 -145 358 -323zM538 449c-13 4 -28 6 -44 6c-70 0 -105 -95 -105 -161c0 -45 10 -65 32 -65c37 0 84 54 108 176z" />
    <glyph glyph-name="A" unicode="A" horiz-adv-x="626" 
d="M625 0h-144l-47 138h-255l-47 -138h-131l236 675h147zM401 241l-67 192c-12 33 -21 64 -28 93h-1c-8 -29 -16 -60 -27 -93l-67 -192h190z" />
    <glyph glyph-name="B" unicode="B" horiz-adv-x="580" 
d="M539 208c0 -98 -67 -210 -271 -210c-40 0 -113 2 -198 2v674c57 3 142 5 224 5c145 0 226 -59 226 -167c0 -67 -37 -125 -102 -151v-2c80 -17 121 -83 121 -151zM382 491c0 50 -29 83 -109 83c-28 0 -50 -1 -73 -2v-176c16 -1 32 -1 53 -1c89 0 129 36 129 96zM400 205
c0 66 -58 93 -143 93c-10 0 -43 0 -57 -1v-189c16 -2 42 -4 72 -4c85 0 128 40 128 101z" />
    <glyph glyph-name="C" unicode="C" horiz-adv-x="566" 
d="M526 23c-50 -19 -113 -31 -176 -31c-236 0 -312 156 -312 324c0 214 112 365 338 365c48 0 100 -7 144 -20l-18 -119c-41 15 -87 23 -133 23c-126 0 -188 -95 -188 -227c0 -146 61 -228 197 -228c41 0 93 11 128 28z" />
    <glyph glyph-name="D" unicode="D" horiz-adv-x="667" 
d="M630 349c0 -232 -152 -353 -372 -353c-70 0 -131 3 -188 5v673c53 2 135 5 218 5c209 0 342 -93 342 -330zM490 339c0 145 -57 231 -211 231c-30 0 -58 -1 -79 -3v-455c18 -3 45 -5 71 -5c127 0 219 72 219 232z" />
    <glyph glyph-name="E" unicode="E" horiz-adv-x="493" 
d="M437 0h-367v675h367v-109h-237v-166h225v-106h-225v-183h237v-111z" />
    <glyph glyph-name="F" unicode="F" horiz-adv-x="465" 
d="M431 565h-231v-174h218v-107h-218v-284h-130v675h361v-110z" />
    <glyph glyph-name="G" unicode="G" horiz-adv-x="675" 
d="M608 32c-67 -27 -150 -42 -231 -42c-214 0 -341 126 -341 332c0 212 144 363 375 363c70 0 137 -12 191 -29l-26 -118c-51 20 -109 31 -173 31c-132 0 -226 -84 -226 -235c0 -143 78 -227 215 -227c32 0 60 4 86 12v235h130v-322z" />
    <glyph glyph-name="H" unicode="H" horiz-adv-x="687" 
d="M616 0h-130v293h-286v-293h-130v675h130v-270h286v270h130v-675z" />
    <glyph glyph-name="I" unicode="I" horiz-adv-x="270" 
d="M200 0h-130v675h130v-675z" />
    <glyph glyph-name="J" unicode="J" horiz-adv-x="335" 
d="M266 189c0 -111 -45 -198 -182 -198c-36 0 -61 4 -84 8v112c16 -6 38 -10 62 -10c47 0 74 20 74 93v481h130v-486z" />
    <glyph glyph-name="K" unicode="K" horiz-adv-x="597" 
d="M588 0h-171l-217 324v-324h-130v675h130v-306l219 306h158l-247 -326z" />
    <glyph glyph-name="L" unicode="L" horiz-adv-x="429" 
d="M419 0h-349v675h130v-561h219v-114z" />
    <glyph glyph-name="M" unicode="M" horiz-adv-x="881" 
d="M850 0h-137l-48 322c-10 61 -16 114 -21 161h-2c-9 -43 -19 -90 -37 -144l-107 -339h-129l-103 315c-19 57 -33 113 -43 168h-2c-4 -60 -11 -113 -19 -172l-38 -311h-132l104 675h152l113 -347c13 -40 26 -89 38 -142h1c11 52 22 92 38 140l116 349h151z" />
    <glyph glyph-name="N" unicode="N" horiz-adv-x="699" 
d="M629 0h-168l-198 341c-29 51 -53 101 -73 145c4 -58 6 -164 6 -245v-241h-126v675h169l188 -322c31 -52 58 -108 83 -159c-5 68 -7 188 -7 271v210h126v-675z" />
    <glyph glyph-name="O" unicode="O" horiz-adv-x="703" 
d="M670 347c0 -223 -147 -358 -330 -358c-206 0 -307 131 -307 340c0 223 149 357 330 357c180 0 307 -108 307 -339zM531 337c0 150 -64 232 -180 232c-93 0 -179 -74 -179 -226c0 -143 56 -236 177 -236c88 0 182 68 182 230z" />
    <glyph glyph-name="P" unicode="P" horiz-adv-x="531" 
d="M508 470c0 -131 -100 -234 -264 -234c-12 0 -28 0 -44 2v-238h-130v675c55 3 115 4 181 4c166 0 257 -77 257 -209zM373 462c0 68 -39 111 -127 111c-16 0 -31 0 -46 -1v-225c13 -2 26 -3 38 -3c80 1 135 45 135 118z" />
    <glyph glyph-name="Q" unicode="Q" horiz-adv-x="703" 
d="M670 347c0 -223 -147 -358 -330 -358c-206 0 -307 131 -307 340c0 223 149 357 330 357c180 0 307 -108 307 -339zM701 -203c-184 -29 -247 46 -399 26v115c176 21 231 -51 399 -27v-114zM531 337c0 150 -64 232 -180 232c-93 0 -179 -74 -179 -226
c0 -143 56 -236 177 -236c88 0 182 68 182 230z" />
    <glyph glyph-name="R" unicode="R" horiz-adv-x="567" 
d="M554 0h-161l-182 279h-11v-279h-130v675c53 3 116 4 194 4c149 0 245 -52 245 -190c0 -100 -72 -172 -166 -188c18 -25 38 -50 54 -74zM373 476c0 65 -40 97 -122 97c-19 0 -38 -1 -51 -3v-195c9 -1 27 -2 47 -2c78 0 126 40 126 103z" />
    <glyph glyph-name="S" unicode="S" horiz-adv-x="503" 
d="M467 207c0 -125 -105 -218 -261 -218c-60 0 -111 6 -156 18l14 125c44 -18 93 -29 147 -29c61 0 113 25 113 88c0 129 -284 70 -284 292c0 120 92 203 255 203c37 0 84 -5 122 -13l-12 -114c-37 12 -76 19 -116 19c-76 0 -111 -33 -111 -81c0 -121 289 -76 289 -290z" />
    <glyph glyph-name="T" unicode="T" horiz-adv-x="510" 
d="M495 564h-175v-564h-130v564h-175v111h480v-111z" />
    <glyph glyph-name="U" unicode="U" horiz-adv-x="681" 
d="M611 262c0 -184 -102 -273 -280 -273c-213 0 -261 116 -261 245v441h130v-433c0 -85 28 -145 140 -145c100 0 142 42 142 157v421h129v-413z" />
    <glyph glyph-name="V" unicode="V" horiz-adv-x="628" 
d="M624 675l-236 -675h-150l-235 675h142l131 -395c13 -38 29 -88 39 -130h2c11 44 26 93 41 138l133 387h133z" />
    <glyph glyph-name="W" unicode="W" horiz-adv-x="951" 
d="M927 675l-172 -675h-160l-98 372c-12 43 -19 91 -26 139h-1c-5 -47 -13 -91 -25 -136l-98 -375h-151l-172 675h139l92 -373c11 -44 19 -90 25 -137h1c7 45 14 90 26 133l103 377h138l104 -375c10 -37 21 -84 27 -131h1c7 47 15 89 25 129l92 377h130z" />
    <glyph glyph-name="X" unicode="X" horiz-adv-x="628" 
d="M618 0h-164l-145 248l-145 -248h-154l215 345l-202 330h151l137 -234l136 234h148l-199 -329z" />
    <glyph glyph-name="Y" unicode="Y" horiz-adv-x="561" 
d="M559 675l-215 -436v-239h-130v238l-211 437h142l89 -194c18 -40 33 -77 46 -112h2c14 39 34 82 54 125l85 181h138z" />
    <glyph glyph-name="Z" unicode="Z" horiz-adv-x="537" 
d="M493 0h-448v100l243 396c14 23 28 43 44 64c-24 -1 -56 -2 -123 -2h-156v117h436v-104l-257 -406c-10 -16 -19 -31 -31 -47c17 2 63 2 146 2h146v-120z" />
    <glyph glyph-name="bracketleft" unicode="[" horiz-adv-x="328" 
d="M292 -205h-221v982h221v-101h-101v-778h101v-103z" />
    <glyph glyph-name="backslash" unicode="\" horiz-adv-x="479" 
d="M483 -161h-126l-350 918h126z" />
    <glyph glyph-name="bracketright" unicode="]" horiz-adv-x="328" 
d="M256 -205h-220v103h100v778h-100v101h220v-982z" />
    <glyph glyph-name="asciicircum" unicode="^" 
d="M488 383l-91 -46l-132 247l-125 -247l-85 45l164 293h98z" />
    <glyph glyph-name="underscore" unicode="_" 
d="M550 -246h-550v102h550v-102z" />
    <glyph glyph-name="quoteleft" unicode="&#x2018;" horiz-adv-x="267" 
d="M230 709c-68 -73 -72 -117 -41 -154c38 -44 11 -121 -59 -121c-94 0 -139 159 48 322z" />
    <glyph glyph-name="a" unicode="a" horiz-adv-x="524" 
d="M456 0h-121c0 29 1 58 5 84l-1 1c-24 -56 -85 -95 -159 -95c-90 0 -142 61 -142 142c0 118 114 174 287 174v25c0 52 -25 79 -97 79c-45 0 -100 -15 -140 -35l-23 101c50 19 120 32 185 32c158 0 203 -65 203 -168v-212c0 -40 1 -87 3 -128zM325 208v15
c-130 0 -165 -34 -165 -77c0 -33 22 -58 59 -58c63 0 106 60 106 120z" />
    <glyph glyph-name="b" unicode="b" horiz-adv-x="559" 
d="M523 274c0 -168 -98 -284 -269 -284c-72 0 -128 8 -185 24v716h128v-214c0 -30 -3 -71 -8 -97h1c25 54 81 88 150 88c119 0 183 -86 183 -233zM389 261c0 93 -27 140 -85 140c-67 0 -107 -77 -107 -160v-140c18 -6 39 -9 67 -9c72 0 125 46 125 169z" />
    <glyph glyph-name="c" unicode="c" horiz-adv-x="425" 
d="M398 14c-39 -15 -91 -23 -140 -23c-138 0 -224 72 -224 241c0 155 81 274 253 274c38 0 77 -6 109 -17l-20 -110c-27 11 -60 19 -93 19c-76 0 -115 -61 -115 -153c0 -85 31 -144 116 -144c34 0 68 7 97 20z" />
    <glyph glyph-name="d" unicode="d" horiz-adv-x="558" 
d="M488 0h-119c0 24 2 56 6 83h-2c-26 -55 -81 -94 -157 -94c-121 0 -181 91 -181 233c0 168 98 284 263 284c21 0 41 -1 63 -4v228h127v-730zM361 258v139c-23 5 -45 8 -67 8c-73 0 -125 -46 -125 -169c0 -93 27 -141 85 -141c67 0 107 78 107 163z" />
    <glyph glyph-name="e" unicode="e" horiz-adv-x="514" 
d="M476 286c0 -17 -1 -37 -4 -59h-308c-1 -92 45 -137 137 -137c47 0 97 10 144 30l14 -97c-54 -22 -119 -33 -180 -33c-157 0 -245 79 -245 254c0 152 84 264 233 264c145 0 209 -99 209 -222zM349 313c2 64 -32 101 -86 101c-53 0 -90 -39 -97 -101h183z" />
    <glyph glyph-name="f" unicode="f" horiz-adv-x="354" 
d="M374 730l-9 -105c-20 7 -43 9 -62 9c-56 0 -81 -29 -81 -95v-42h116v-99h-116v-398h-127v398h-87v99h87v40c0 135 62 201 198 201c27 0 55 -2 81 -8z" />
    <glyph glyph-name="g" unicode="g" horiz-adv-x="545" 
d="M520 -53c0 -107 -108 -198 -273 -198c-132 0 -213 51 -213 148c0 52 36 100 77 122c-30 14 -49 42 -49 77c0 38 25 73 59 88c-46 25 -74 71 -74 136c0 100 74 188 219 188c32 0 54 -4 81 -11h169v-100h-68c16 -15 25 -37 25 -63c0 -106 -71 -179 -213 -179
c-15 0 -25 1 -39 4c-16 -7 -24 -21 -24 -32c0 -23 19 -29 77 -31l77 -3c107 -4 169 -50 169 -146zM351 327c0 53 -31 88 -90 88c-58 0 -92 -37 -92 -87c0 -53 32 -86 92 -86c56 0 90 32 90 85zM393 -70c0 36 -23 62 -78 64l-86 3h-23c-29 -21 -46 -48 -46 -76
c0 -46 42 -74 106 -74c83 0 127 36 127 83z" />
    <glyph glyph-name="h" unicode="h" horiz-adv-x="571" 
d="M501 0h-127v318c0 51 -14 82 -61 82c-65 0 -116 -73 -116 -161v-239h-128v730h128v-214c0 -30 -2 -71 -9 -101h2c29 55 86 92 163 92c112 0 148 -71 148 -158v-349z" />
    <glyph glyph-name="i" unicode="i" horiz-adv-x="266" 
d="M213 648c0 -42 -36 -77 -80 -77s-79 34 -79 77s35 78 79 78s80 -34 80 -78zM197 0h-128v497h128v-497z" />
    <glyph glyph-name="j" unicode="j" horiz-adv-x="271" 
d="M217 648c0 -42 -36 -77 -80 -77s-80 34 -80 77s36 78 80 78s80 -34 80 -78zM201 -37c0 -134 -48 -211 -193 -211c-23 0 -50 4 -70 10l8 109c18 -7 41 -12 59 -12c53 0 69 23 69 91v547h127v-534z" />
    <glyph glyph-name="k" unicode="k" horiz-adv-x="523" 
d="M511 0h-160l-154 246v-246h-128v730h128v-440l145 207h156l-174 -227z" />
    <glyph glyph-name="l" unicode="l" horiz-adv-x="266" 
d="M197 0h-128v730h128v-730z" />
    <glyph glyph-name="m" unicode="m" horiz-adv-x="866" 
d="M797 0h-128v314c0 53 -12 86 -59 86c-56 0 -114 -65 -114 -162v-238h-126v315c0 49 -10 85 -59 85c-59 0 -114 -69 -114 -162v-238h-128v497h121c0 -23 -2 -61 -7 -89l2 -1c30 61 90 100 164 100c88 0 125 -51 137 -99c23 48 78 99 162 99c96 0 149 -53 149 -165v-342z
" />
    <glyph glyph-name="n" unicode="n" horiz-adv-x="571" 
d="M501 0h-127v318c0 51 -14 82 -61 82c-65 0 -116 -73 -116 -160v-240h-128v497h121c0 -23 -2 -63 -7 -89h1c30 58 88 99 169 99c112 0 148 -71 148 -158v-349z" />
    <glyph glyph-name="o" unicode="o" horiz-adv-x="553" 
d="M519 258c0 -156 -105 -268 -254 -268c-141 0 -232 73 -232 250c0 155 103 267 254 267c141 0 232 -78 232 -249zM387 251c0 96 -34 148 -109 148c-57 0 -113 -44 -113 -146s37 -154 111 -154c63 0 111 51 111 152z" />
    <glyph glyph-name="p" unicode="p" horiz-adv-x="559" 
d="M523 275c0 -173 -90 -282 -262 -282c-24 0 -43 1 -64 4v-238h-128v738h119c0 -24 -1 -57 -5 -83h2c28 58 81 93 156 93c118 0 182 -85 182 -232zM389 261c0 93 -27 141 -85 141c-67 0 -107 -78 -107 -163v-138c20 -6 41 -9 67 -9c72 0 125 46 125 169z" />
    <glyph glyph-name="q" unicode="q" horiz-adv-x="559" 
d="M489 -241h-127v225c0 27 1 64 7 96l-2 1c-26 -57 -81 -92 -147 -92c-119 0 -184 80 -184 233c0 168 96 284 271 284c70 0 128 -6 182 -15v-732zM362 260v138c-21 4 -42 7 -67 7c-73 0 -125 -46 -125 -169c0 -93 27 -141 84 -141c67 0 108 78 108 165z" />
    <glyph glyph-name="r" unicode="r" horiz-adv-x="355" 
d="M341 507l-6 -125c-92 18 -138 -41 -138 -179v-203h-128v497h121c0 -25 -3 -65 -9 -100h2c24 63 72 118 158 110z" />
    <glyph glyph-name="s" unicode="s" horiz-adv-x="417" 
d="M378 155c0 -99 -87 -165 -219 -165c-39 0 -79 4 -111 13l9 107c30 -13 69 -20 106 -20c48 0 80 21 80 53c0 89 -202 37 -202 206c0 88 67 159 210 159c29 0 63 -4 91 -10l-6 -100c-27 8 -59 13 -90 13c-50 0 -73 -20 -73 -51c0 -84 205 -42 205 -205z" />
    <glyph glyph-name="t" unicode="t" horiz-adv-x="375" 
d="M344 4c-32 -8 -73 -14 -108 -14c-110 0 -144 40 -144 156v252h-86v99h86v153l127 34v-187h121v-99h-121v-218c0 -64 15 -82 59 -82c21 0 40 2 57 7z" />
    <glyph glyph-name="u" unicode="u" horiz-adv-x="570" 
d="M501 0h-120c0 23 1 63 6 89h-1c-30 -58 -87 -99 -169 -99c-112 0 -148 71 -148 158v349h127v-318c0 -51 14 -82 62 -82c65 0 115 73 115 160v240h128v-497z" />
    <glyph glyph-name="v" unicode="v" horiz-adv-x="506" 
d="M503 497l-186 -497h-130l-184 497h140l79 -224c12 -35 24 -75 33 -110h2c8 34 18 72 30 106l80 228h136z" />
    <glyph glyph-name="w" unicode="w" horiz-adv-x="796" 
d="M786 497l-156 -497h-139l-72 221c-11 34 -19 69 -28 111h-1c-10 -46 -21 -84 -34 -125l-63 -207h-132l-152 497h140l53 -188c13 -49 27 -99 39 -150h1c10 55 22 100 36 144l60 194h123l61 -188c18 -57 30 -101 40 -150h2c10 51 20 95 35 144l56 194h131z" />
    <glyph glyph-name="x" unicode="x" horiz-adv-x="528" 
d="M517 0h-161l-96 167l-96 -167h-153l171 251l-161 246h153l96 -164l97 164h141l-155 -245z" />
    <glyph glyph-name="y" unicode="y" horiz-adv-x="502" 
d="M499 497l-197 -525c-65 -172 -135 -221 -250 -221c-21 0 -51 3 -70 7l15 110c19 -6 42 -10 63 -10c42 0 86 20 114 98l15 44l-183 497h142l67 -190c15 -43 28 -92 39 -137h1c11 45 32 112 48 158l59 169h137z" />
    <glyph glyph-name="z" unicode="z" horiz-adv-x="450" 
d="M403 0h-358v91l200 294c-19 -1 -58 -2 -106 -2h-88v114h348v-91l-196 -290c21 1 76 1 113 1h87v-117z" />
    <glyph glyph-name="braceleft" unicode="{" horiz-adv-x="362" 
d="M330 -205h-21c-130 0 -182 68 -182 223v135c0 83 -33 108 -100 112v96c68 4 100 24 100 108v87c0 146 50 221 182 221h21v-101c-65 0 -84 -22 -84 -118v-86c0 -106 -36 -148 -92 -158v-1c55 -9 92 -56 92 -162v-134c0 -97 19 -119 84 -119v-103z" />
    <glyph glyph-name="bar" unicode="|" horiz-adv-x="288" 
d="M193 -241h-102v1000h102v-1000z" />
    <glyph glyph-name="braceright" unicode="}" horiz-adv-x="360" 
d="M338 265c-66 -4 -100 -29 -100 -112v-135c0 -155 -52 -223 -181 -223h-22v103c65 0 85 22 85 119v134c0 106 36 153 92 162v1c-57 8 -92 52 -92 155v89c0 96 -20 118 -85 118v101h22c132 0 181 -75 181 -221v-84c0 -87 32 -107 100 -111v-96z" />
    <glyph glyph-name="asciitilde" unicode="~" 
d="M508 566c0 -96 -57 -160 -150 -160c-114 0 -117 104 -174 104c-33 0 -46 -28 -47 -80h-95v18c0 96 58 160 151 160c114 0 117 -105 174 -105c32 0 46 28 47 81h94v-18z" />
    <glyph glyph-name="exclamdown" unicode="&#xa1;" horiz-adv-x="321" 
d="M231 432c0 -42 -34 -76 -78 -76s-78 34 -78 76c0 43 34 76 78 76s78 -33 78 -76zM227 -211h-150l19 520h110z" />
    <glyph glyph-name="cent" unicode="&#xa2;" 
d="M474 128c-32 -15 -73 -26 -110 -30v-98h-96v98c-129 13 -195 99 -195 228c0 124 70 211 195 237v87h96v-83c32 -2 72 -10 103 -21l-26 -103c-28 13 -65 22 -102 22c-80 0 -132 -47 -132 -133c0 -78 46 -128 132 -128c38 0 74 9 105 26z" />
    <glyph glyph-name="sterling" unicode="&#xa3;" 
d="M490 0h-422v87c53 43 80 87 80 136c0 16 -2 34 -5 51h-95v99h82c-4 29 -8 58 -8 85c0 148 86 203 221 203c33 0 83 -6 123 -16l-27 -107c-28 10 -66 19 -103 19c-57 0 -85 -31 -85 -88c0 -31 5 -64 9 -96h151v-99h-139c3 -16 4 -31 4 -47c0 -51 -19 -85 -57 -119
c21 1 47 2 73 2h198v-110z" />
    <glyph glyph-name="fraction" unicode="&#x2044;" horiz-adv-x="435" 
d="M518 635l-492 -669l-92 66l492 669z" />
    <glyph glyph-name="yen" unicode="&#xa5;" 
d="M531 650l-161 -330h124v-82h-155v-59h155v-81h-155v-98h-129v98h-155v81h155v59h-155v82h124l-159 330h141l75 -167c15 -36 29 -73 39 -101h1c11 30 28 71 43 104l74 164h138z" />
    <glyph glyph-name="florin" unicode="&#x192;" 
d="M518 692l-15 -109c-28 10 -60 15 -84 15c-57 0 -82 -29 -90 -105l-11 -120h141v-99h-151l-20 -216c-14 -152 -92 -219 -227 -219c-26 0 -62 4 -91 11l15 108c26 -7 61 -14 87 -14c53 0 81 29 88 104l21 226h-114v99h123l11 111c16 153 92 219 227 219c27 0 62 -5 90 -11z
" />
    <glyph glyph-name="section" unicode="&#xa7;" horiz-adv-x="530" 
d="M458 247c0 -58 -31 -110 -77 -145c22 -28 37 -62 37 -104c0 -82 -62 -165 -225 -165c-23 0 -57 3 -83 10l8 107c27 -8 52 -12 77 -12c59 0 86 27 86 61c0 91 -221 147 -221 326c0 59 29 110 76 145c-24 30 -37 61 -37 104c0 88 59 164 210 164c26 0 57 -2 82 -8l-7 -106
c-24 7 -47 10 -71 10c-54 0 -77 -20 -77 -56c0 -87 222 -154 222 -331zM342 230c0 65 -63 107 -134 176c-22 -17 -32 -41 -32 -64c0 -58 48 -100 134 -175c22 16 32 40 32 63z" />
    <glyph glyph-name="currency" unicode="&#xa4;" 
d="M515 118l-98 -71l-77 103c-22 -10 -48 -16 -74 -16c-21 0 -39 4 -55 9l-69 -95l-99 70l68 85c-21 30 -34 70 -34 123c0 49 14 91 39 123l-72 92l97 69l71 -97c22 9 47 13 72 13c21 0 44 -3 64 -11l70 96l97 -71l-71 -89c18 -27 29 -64 29 -115c0 -47 -14 -88 -37 -119z
M361 334c0 62 -25 99 -87 99c-45 0 -85 -35 -85 -102c0 -59 25 -104 86 -104c44 0 86 33 86 107z" />
    <glyph glyph-name="quotesingle" unicode="'" horiz-adv-x="216" 
d="M172 702l-16 -254h-96l-16 254h128z" />
    <glyph glyph-name="quotedblleft" unicode="&#x201c;" horiz-adv-x="485" 
d="M449 709c-68 -73 -72 -117 -41 -154c37 -44 10 -121 -59 -121c-95 0 -139 159 47 322zM230 709c-68 -73 -72 -117 -41 -154c38 -44 11 -121 -59 -121c-94 0 -139 159 48 322z" />
    <glyph glyph-name="guillemotleft" unicode="&#xab;" horiz-adv-x="534" 
d="M477 150l-100 -47l-118 189l120 192l96 -46l-92 -145zM252 144l-103 -46l-107 194l110 197l98 -45l-85 -151z" />
    <glyph glyph-name="guilsinglleft" unicode="&#x2039;" horiz-adv-x="312" 
d="M255 148l-101 -48l-113 192l115 195l97 -47l-89 -147z" />
    <glyph glyph-name="guilsinglright" unicode="&#x203a;" horiz-adv-x="312" 
d="M272 295l-116 -195l-97 47l90 147l-91 145l101 48z" />
    <glyph glyph-name="fi" unicode="&#xfb01;" horiz-adv-x="595" 
d="M526 0h-127v398h-177v-398h-127v398h-87v99h87v18c0 147 77 223 245 223c57 0 104 -7 154 -19l-22 -106c-37 12 -84 20 -122 20c-91 0 -128 -38 -128 -110v-26h304v-497z" />
    <glyph glyph-name="fl" unicode="&#xfb02;" horiz-adv-x="595" 
d="M526 0h-127v628c-24 4 -46 6 -70 6c-71 0 -107 -29 -107 -95v-42h109v-99h-109v-398h-127v398h-87v99h87v48c0 115 70 193 245 193c51 0 119 -7 186 -17v-721z" />
    <glyph glyph-name="endash" unicode="&#x2013;" 
d="M550 242h-550v111h550v-111z" />
    <glyph glyph-name="dagger" unicode="&#x2020;" horiz-adv-x="457" 
d="M416 533h-135l21 -88l-23 -255h-100l-24 255l21 88h-134v99h134l-21 136h147l-21 -136h135v-99z" />
    <glyph glyph-name="daggerdbl" unicode="&#x2021;" horiz-adv-x="457" 
d="M416 287h-134l21 -122h-149l21 122h-133v98h133l-20 81l20 82h-133v98h133l-20 122h147l-20 -122h134v-98h-134l20 -82l-20 -81h134v-98z" />
    <glyph glyph-name="periodcentered" unicode="&#xb7;" horiz-adv-x="269" 
d="M218 298c0 -46 -38 -83 -83 -83c-46 0 -83 37 -83 83c0 45 37 82 83 82c45 0 83 -37 83 -82z" />
    <glyph glyph-name="paragraph" unicode="&#xb6;" horiz-adv-x="595" 
d="M544 573h-65v-669h-179v102h70v669h174v-102zM292 231c-165 -1 -237 102 -237 223c0 134 97 221 237 221v-444z" />
    <glyph glyph-name="bullet" unicode="&#x2022;" horiz-adv-x="423" 
d="M360 297c0 -81 -67 -148 -149 -148s-148 67 -148 148s66 148 148 148s149 -67 149 -148z" />
    <glyph glyph-name="quotesinglbase" unicode="&#x201a;" horiz-adv-x="267" 
d="M136 149c94 0 138 -159 -48 -322l-52 47c68 73 72 116 40 153c-37 45 -10 122 60 122z" />
    <glyph glyph-name="quotedblbase" unicode="&#x201e;" horiz-adv-x="485" 
d="M354 149c95 0 139 -159 -47 -322l-53 47c68 73 72 116 41 153c-37 45 -10 122 59 122zM136 149c94 0 138 -159 -48 -322l-52 47c68 73 72 116 40 153c-37 45 -10 122 60 122z" />
    <glyph glyph-name="quotedblright" unicode="&#x201d;" horiz-adv-x="485" 
d="M354 747c95 0 139 -159 -47 -322l-53 47c68 73 72 117 41 154c-37 44 -10 121 59 121zM136 747c94 0 138 -159 -48 -322l-52 47c68 73 72 117 40 154c-37 44 -10 121 60 121z" />
    <glyph glyph-name="guillemotright" unicode="&#xbb;" horiz-adv-x="534" 
d="M492 295l-110 -197l-99 45l86 151l-87 149l103 46zM275 295l-121 -192l-96 46l93 145l-94 143l100 47z" />
    <glyph glyph-name="ellipsis" unicode="&#x2026;" horiz-adv-x="723" 
d="M670 67c0 -43 -35 -78 -78 -78s-78 35 -78 78s35 78 78 78s78 -35 78 -78zM437 67c0 -43 -35 -78 -78 -78s-78 35 -78 78s35 78 78 78s78 -35 78 -78zM204 67c0 -43 -36 -78 -79 -78s-78 35 -78 78s35 78 78 78s79 -35 79 -78z" />
    <glyph glyph-name="perthousand" unicode="&#x2030;" horiz-adv-x="1052" 
d="M912 147c0 56 -17 76 -50 76c-31 0 -53 -28 -53 -77c0 -57 19 -77 51 -77c30 0 52 28 52 78zM1005 153c0 -103 -70 -164 -149 -164c-85 0 -140 52 -140 152c0 101 69 162 148 162s141 -44 141 -150zM584 147c0 56 -17 76 -50 76c-31 0 -53 -28 -53 -77
c0 -57 19 -77 51 -77c30 0 52 28 52 78zM677 153c0 -103 -70 -164 -149 -164c-85 0 -140 52 -140 152c0 101 69 162 148 162c80 0 141 -44 141 -150zM655 610l-519 -630l-76 59l519 630zM237 505c0 56 -17 76 -51 76c-31 0 -53 -28 -53 -77c0 -56 19 -77 51 -77
c31 0 53 28 53 78zM329 512c0 -103 -70 -165 -149 -165c-85 0 -140 52 -140 153c0 100 69 161 149 161c79 0 140 -43 140 -149z" />
    <glyph glyph-name="questiondown" unicode="&#xbf;" horiz-adv-x="451" 
d="M336 432c0 -42 -34 -76 -78 -76s-78 34 -78 76c0 43 34 76 78 76s78 -33 78 -76zM384 -104l-16 -116c-220 5 -321 101 -321 204c0 168 198 166 150 325h125c64 -189 -135 -210 -135 -311c0 -60 74 -98 197 -102z" />
    <glyph glyph-name="grave" unicode="`" horiz-adv-x="374" 
d="M312 629l-48 -69l-181 108l59 86z" />
    <glyph glyph-name="acute" unicode="&#xb4;" horiz-adv-x="393" 
d="M317 668l-181 -108l-47 69l169 125z" />
    <glyph glyph-name="circumflex" unicode="&#x2c6;" horiz-adv-x="426" 
d="M365 619l-50 -59l-104 81l-103 -81l-49 58l153 136z" />
    <glyph glyph-name="tilde" unicode="&#x2dc;" horiz-adv-x="467" 
d="M414 669c-29 -58 -70 -89 -122 -89c-66 0 -85 50 -123 50c-22 0 -39 -15 -55 -45l-61 47c29 58 70 89 122 89c66 0 84 -50 122 -50c23 0 40 15 56 45z" />
    <glyph glyph-name="macron" unicode="&#xaf;" horiz-adv-x="395" 
d="M332 600h-269v92h269v-92z" />
    <glyph glyph-name="breve" unicode="&#x2d8;" horiz-adv-x="373" 
d="M322 724c0 -81 -41 -153 -138 -153s-135 74 -135 153h85c0 -34 17 -59 51 -59c32 0 52 20 52 59h85z" />
    <glyph glyph-name="dotaccent" unicode="&#x2d9;" horiz-adv-x="287" 
d="M219 648c0 -42 -36 -77 -80 -77s-80 34 -80 77s36 78 80 78s80 -34 80 -78z" />
    <glyph glyph-name="dieresis" unicode="&#xa8;" horiz-adv-x="546" 
d="M434 648c0 -38 -31 -69 -69 -69s-69 31 -69 69c0 39 31 69 69 69s69 -30 69 -69zM232 648c0 -38 -31 -69 -69 -69s-69 31 -69 69c0 39 31 69 69 69s69 -30 69 -69z" />
    <glyph glyph-name="ring" unicode="&#x2da;" horiz-adv-x="365" 
d="M310 645c0 -69 -57 -122 -127 -122c-71 0 -127 51 -127 122c0 70 57 121 127 121c71 0 127 -51 127 -121zM235 645c0 29 -23 53 -52 53s-53 -24 -53 -53s24 -53 53 -53s52 24 52 53z" />
    <glyph glyph-name="cedilla" unicode="&#xb8;" horiz-adv-x="400" 
d="M256 -40c52 -71 36 -136 -20 -194h-96c48 58 58 101 10 161z" />
    <glyph glyph-name="hungarumlaut" unicode="&#x2dd;" horiz-adv-x="504" 
d="M467 691l-156 -131l-56 51l143 147zM265 704l-143 -144l-60 51l129 155z" />
    <glyph glyph-name="ogonek" unicode="&#x2db;" horiz-adv-x="317" 
d="M282 -157c-36 -41 -84 -67 -147 -67c-79 0 -110 43 -110 93c0 44 28 95 78 131h134c-62 -31 -88 -69 -88 -99c0 -18 13 -28 30 -28c18 0 38 11 54 29z" />
    <glyph glyph-name="caron" unicode="&#x2c7;" horiz-adv-x="426" 
d="M364 695l-154 -135l-153 134l50 60l104 -82l103 82z" />
    <glyph glyph-name="emdash" unicode="&#x2014;" horiz-adv-x="1000" 
d="M889 242h-778v111h778v-111z" />
    <glyph glyph-name="AE" unicode="&#xc6;" horiz-adv-x="785" 
d="M729 0h-365v149h-197l-72 -149h-133l334 675h426v-109h-233v-166h225v-106h-225v-183h240v-111zM364 251v315h-2c-18 -46 -35 -87 -62 -141l-89 -174h153z" />
    <glyph glyph-name="ordfeminine" unicode="&#xaa;" horiz-adv-x="403" 
d="M341 325h-97c0 14 1 33 4 49l-1 1c-14 -33 -57 -59 -101 -59c-74 0 -106 41 -106 97c0 89 86 130 199 129v15c0 21 -7 47 -58 47c-40 0 -77 -11 -110 -27l-9 86c36 13 83 22 135 22c111 0 143 -56 143 -116v-159c0 -34 0 -61 1 -85zM361 176h-311v99h311v-99zM239 467v10
c-71 0 -103 -15 -103 -50c0 -18 14 -32 37 -32c44 0 66 45 66 72z" />
    <glyph glyph-name="Lslash" unicode="&#x141;" horiz-adv-x="438" 
d="M430 0h-349v262l-72 -23l-18 97l90 28v311h130v-275l102 32l17 -98l-119 -37v-183h219v-114z" />
    <glyph glyph-name="Oslash" unicode="&#xd8;" horiz-adv-x="703" 
d="M670 345c0 -223 -144 -356 -331 -356c-23 0 -42 1 -60 5l-35 -99l-95 30l34 97c-103 52 -150 166 -150 308c0 222 147 356 329 356c18 0 35 -1 52 -4l33 94l95 -30l-32 -90c97 -45 160 -145 160 -311zM536 336c0 87 -23 158 -69 193l-151 -421c16 -4 33 -5 49 -4
c91 8 171 81 171 232zM377 568c-19 3 -36 2 -57 -1c-85 -13 -153 -89 -153 -225c0 -86 19 -152 61 -188z" />
    <glyph glyph-name="OE" unicode="&#x152;" horiz-adv-x="860" 
d="M804 0h-355c-34 -7 -71 -11 -109 -11c-206 0 -307 131 -307 340c0 223 149 357 325 357c39 0 73 -4 105 -11h341v-109h-236v-166h224v-106h-224v-183h236v-111zM438 123v433c-27 8 -54 13 -86 13c-94 0 -180 -74 -180 -226c0 -143 56 -236 177 -236c28 0 61 6 89 16z" />
    <glyph glyph-name="ordmasculine" unicode="&#xba;" horiz-adv-x="426" 
d="M385 506c0 -115 -78 -189 -183 -189c-92 0 -164 49 -164 182c0 115 80 187 180 187c95 0 167 -48 167 -180zM371 176h-318v99h318v-99zM281 504c0 53 -18 92 -69 92c-35 0 -70 -25 -70 -94c0 -50 16 -96 67 -96c39 0 72 26 72 98z" />
    <glyph glyph-name="ae" unicode="&#xe6;" horiz-adv-x="800" 
d="M762 286c0 -17 -1 -37 -4 -59h-308c-1 -92 45 -137 137 -137c48 0 98 10 144 30l14 -97c-54 -22 -119 -33 -180 -33c-107 0 -174 41 -200 101h-1c-30 -57 -92 -101 -182 -101c-92 0 -144 61 -144 142c0 118 114 174 287 174v25c0 52 -25 79 -97 79
c-45 0 -100 -15 -140 -35l-23 101c50 19 120 32 185 32c66 0 122 -15 156 -62h1c30 36 83 62 146 62c145 0 209 -99 209 -222zM635 313c2 64 -32 101 -86 101c-53 0 -90 -39 -97 -101h183zM325 208v15c-130 0 -165 -34 -165 -77c0 -33 22 -58 59 -58c63 0 106 60 106 120z
" />
    <glyph glyph-name="dotlessi" unicode="&#x131;" horiz-adv-x="266" 
d="M197 0h-128v497h128v-497z" />
    <glyph glyph-name="lslash" unicode="&#x142;" horiz-adv-x="301" 
d="M302 330l-89 -28v-302h-127v268l-78 -25l-11 97l89 28v362h127v-327l79 25z" />
    <glyph glyph-name="oslash" unicode="&#xf8;" horiz-adv-x="553" 
d="M519 258c0 -157 -106 -268 -253 -268c-19 0 -37 2 -53 6l-39 -103l-75 23l40 101c-71 39 -106 118 -106 223c0 159 104 267 254 267c12 0 26 -1 40 -2l36 93l75 -23l-36 -91c66 -32 117 -100 117 -226zM399 250c0 56 -14 95 -42 122l-105 -274c11 -3 25 -5 39 -4
c56 5 108 53 108 156zM288 403c-10 1 -20 1 -30 0c-52 -7 -104 -46 -104 -150c0 -48 10 -92 32 -116z" />
    <glyph glyph-name="oe" unicode="&#x153;" horiz-adv-x="860" 
d="M821 286c0 -17 -1 -37 -4 -59h-307c-1 -92 45 -137 136 -137c48 0 98 10 144 30l14 -97c-54 -22 -118 -33 -180 -33c-90 0 -148 30 -185 81c-36 -48 -97 -81 -174 -81c-140 0 -232 73 -232 250c0 156 102 267 254 267c64 0 129 -23 166 -73c36 45 88 74 159 74
c146 0 209 -99 209 -222zM694 313c2 64 -31 101 -86 101c-52 0 -90 -39 -97 -101h183zM387 251c0 96 -34 148 -109 148c-57 0 -113 -44 -113 -146s37 -154 111 -154c63 0 111 51 111 152z" />
    <glyph glyph-name="germandbls" unicode="&#xdf;" horiz-adv-x="607" 
d="M576 157c0 -101 -84 -168 -207 -168c-43 0 -81 5 -106 14l7 105c27 -12 60 -20 91 -20c60 0 83 27 83 56c0 87 -178 75 -178 230c0 117 113 121 113 206c0 38 -29 58 -75 58c-67 0 -107 -43 -107 -138v-500h-128v494c0 177 109 243 240 243c123 0 203 -56 203 -148
c0 -129 -116 -122 -116 -200c0 -85 180 -80 180 -232z" />
    <glyph glyph-name="eth" unicode="&#xf0;" horiz-adv-x="555" 
d="M518 278c0 -195 -111 -288 -249 -288s-236 79 -236 250c0 159 102 265 241 265c31 0 63 -9 79 -31c-9 16 -19 31 -25 41c-13 22 -30 45 -53 69l-92 -41l-52 60l84 37c-22 19 -48 38 -76 57l125 53c24 -18 47 -38 69 -60l89 39l51 -60l-86 -37c84 -103 131 -225 131 -354z
M385 260c0 85 -35 139 -109 139c-58 0 -110 -46 -110 -149c0 -98 43 -151 113 -151c62 0 106 49 106 161z" />
    <glyph glyph-name="Scaron" unicode="&#x160;" horiz-adv-x="503" 
d="M422 802l-165 -87l-166 86l30 63l137 -59l135 59zM467 207c0 -125 -105 -218 -261 -218c-60 0 -111 6 -156 18l14 125c44 -18 93 -29 147 -29c61 0 113 25 113 88c0 129 -284 70 -284 292c0 120 92 203 255 203c37 0 84 -5 122 -13l-12 -114c-37 12 -76 19 -116 19
c-76 0 -111 -33 -111 -81c0 -121 289 -76 289 -290z" />
    <glyph glyph-name="scaron" unicode="&#x161;" horiz-adv-x="417" 
d="M378 155c0 -99 -87 -165 -219 -165c-39 0 -79 4 -111 13l9 107c30 -13 69 -20 106 -20c48 0 80 21 80 53c0 89 -202 37 -202 206c0 88 67 159 210 159c29 0 63 -4 91 -10l-6 -100c-27 8 -59 13 -90 13c-50 0 -73 -20 -73 -51c0 -84 205 -42 205 -205zM370 695l-154 -135
l-153 134l50 60l104 -82l103 82z" />
    <glyph glyph-name="Yacute" unicode="&#xdd;" horiz-adv-x="561" 
d="M444 769l-216 -53l-21 70l207 75zM559 675l-215 -436v-239h-130v238l-211 437h142l89 -194c18 -40 33 -77 46 -112h2c14 39 34 82 54 125l85 181h138z" />
    <glyph glyph-name="yacute" unicode="&#xfd;" horiz-adv-x="502" 
d="M499 497l-197 -525c-65 -172 -135 -221 -250 -221c-21 0 -51 3 -70 7l15 110c19 -6 42 -10 63 -10c42 0 86 20 114 98l15 44l-183 497h142l67 -190c15 -43 28 -92 39 -137h1c11 45 32 112 48 158l59 169h137zM421 668l-181 -108l-47 69l169 125z" />
    <glyph glyph-name="HT" horiz-adv-x="703" 
 />
    <glyph glyph-name="Thorn" unicode="&#xde;" horiz-adv-x="544" 
d="M528 365c0 -139 -108 -241 -278 -241c-19 0 -34 0 -50 2v-126h-130v675h130v-94c22 1 44 2 73 2c158 0 255 -73 255 -218zM394 357c0 69 -40 120 -140 120c-18 0 -35 -2 -54 -4v-239c17 -3 37 -4 58 -4c80 0 136 43 136 127z" />
    <glyph glyph-name="thorn" unicode="&#xfe;" horiz-adv-x="559" 
d="M523 275c0 -173 -90 -282 -262 -282c-24 0 -43 1 -64 4v-238h-128v971h128v-204c0 -31 -1 -72 -5 -102h2c25 49 74 83 147 83c118 0 182 -85 182 -232zM389 261c0 93 -27 141 -85 141c-67 0 -107 -78 -107 -163v-138c20 -6 41 -9 67 -9c72 0 125 46 125 169z" />
    <glyph glyph-name="Zcaron" unicode="&#x17d;" horiz-adv-x="537" 
d="M449 802l-165 -87l-166 86l30 63l137 -59l135 59zM493 0h-448v100l243 396c14 23 28 43 44 64c-24 -1 -56 -2 -123 -2h-156v117h436v-104l-257 -406c-10 -16 -19 -31 -31 -47c17 2 63 2 146 2h146v-120z" />
    <glyph glyph-name="zcaron" unicode="&#x17e;" horiz-adv-x="450" 
d="M403 0h-358v91l200 294c-19 -1 -58 -2 -106 -2h-88v114h348v-91l-196 -290c21 1 76 1 113 1h87v-117zM380 695l-154 -135l-153 134l50 60l104 -82l103 82z" />
    <glyph glyph-name="onehalf" unicode="&#xbd;" horiz-adv-x="727" 
d="M672 0h-235v70l58 49c43 36 56 55 56 74c0 20 -13 33 -38 33c-18 0 -39 -6 -55 -17l-18 76c29 12 67 21 103 21c88 0 121 -44 121 -93c0 -35 -18 -65 -66 -106l-33 -28h107v-79zM635 613l-501 -635l-80 57l501 635zM227 354h-103v215l-66 -28l-19 73l92 36h96v-296z" />
    <glyph glyph-name="onequarter" unicode="&#xbc;" horiz-adv-x="725" 
d="M539 119v117l-67 -117h67zM676 49h-46v-49h-91v49h-141l-6 65l102 182h136v-176h46v-71zM636 613l-501 -635l-81 57l501 635zM228 354h-104v215l-65 -28l-19 73l92 36h96v-296z" />
    <glyph glyph-name="onesuperior" unicode="&#xb9;" horiz-adv-x="317" 
d="M228 354h-104v215l-65 -28l-19 73l92 36h96v-296z" />
    <glyph glyph-name="threequarters" unicode="&#xbe;" horiz-adv-x="730" 
d="M544 119v117l-67 -117h67zM681 49h-46v-49h-91v49h-141l-6 65l102 182h136v-176h46v-71zM641 613l-502 -635l-80 57l501 635zM272 443c0 -63 -53 -99 -152 -99c-25 0 -59 4 -74 8l10 65c13 -4 33 -8 52 -8c37 0 52 14 52 33c0 26 -20 40 -94 30v59h14c58 0 74 15 74 36
c0 16 -10 28 -38 28c-19 0 -39 -5 -54 -13l-13 62c22 9 59 16 95 16c86 0 117 -39 117 -80c0 -34 -14 -57 -46 -72c36 -4 57 -35 57 -65z" />
    <glyph glyph-name="threesuperior" unicode="&#xb3;" horiz-adv-x="312" 
d="M268 443c0 -63 -53 -99 -153 -99c-24 0 -59 5 -74 8l10 65c13 -4 34 -7 52 -7c37 0 53 13 53 32c0 26 -21 40 -94 30v59h14c58 0 74 15 74 36c0 16 -10 28 -39 28c-18 0 -39 -5 -54 -13l-13 62c22 9 59 16 95 16c87 0 117 -39 117 -80c0 -34 -13 -57 -45 -72
c36 -4 57 -35 57 -65z" />
    <glyph glyph-name="twosuperior" unicode="&#xb2;" horiz-adv-x="322" 
d="M277 354h-235v70l58 49c43 36 56 54 56 74s-13 33 -38 33c-18 0 -39 -7 -55 -17l-18 76c29 11 66 21 102 21c89 0 122 -44 122 -93c0 -35 -18 -65 -66 -106l-33 -28h107v-79z" />
    <glyph glyph-name="brokenbar" unicode="&#xa6;" horiz-adv-x="288" 
d="M193 391h-102v368h102v-368zM193 -241h-102v378h102v-378z" />
    <glyph glyph-name="minus" unicode="&#x2212;" 
d="M511 242h-472v111h472v-111z" />
    <glyph glyph-name="multiply" unicode="&#xd7;" 
d="M503 147l-78 -78l-154 154l-154 -154l-70 70l154 154l-154 154l78 78l154 -154l154 154l70 -70l-154 -154z" />
    <glyph glyph-name="Adieresis" unicode="&#xc4;" horiz-adv-x="626" 
d="M476 786c0 -34 -28 -61 -62 -61s-61 27 -61 61s27 62 61 62s62 -28 62 -62zM260 786c0 -34 -27 -61 -61 -61s-62 27 -62 61s28 62 62 62s61 -28 61 -62zM625 0h-144l-47 138h-255l-47 -138h-131l236 675h147zM401 241l-67 192c-12 33 -21 64 -28 93h-1
c-8 -29 -16 -60 -27 -93l-67 -192h190z" />
    <glyph glyph-name="Aring" unicode="&#xc5;" horiz-adv-x="626" 
d="M625 0h-144l-47 138h-255l-47 -138h-131l224 639c-25 18 -41 48 -41 84c0 70 58 121 127 121c71 0 127 -51 127 -121c0 -35 -16 -66 -41 -85zM364 723c0 29 -24 53 -53 53s-52 -24 -52 -53s23 -53 52 -53s53 24 53 53zM400 241l-63 178c-14 36 -23 70 -31 106h-1
c-8 -34 -19 -73 -32 -111l-61 -173h188z" />
    <glyph glyph-name="Ccedilla" unicode="&#xc7;" horiz-adv-x="566" 
d="M526 23c-50 -19 -113 -31 -176 -31c-236 0 -312 156 -312 324c0 214 112 365 338 365c48 0 100 -7 144 -20l-18 -119c-41 15 -87 23 -133 23c-126 0 -188 -95 -188 -227c0 -146 61 -228 197 -228c41 0 93 11 128 28zM362 -40c52 -71 36 -136 -20 -194h-96
c48 58 58 101 10 161z" />
    <glyph glyph-name="Eacute" unicode="&#xc9;" horiz-adv-x="493" 
d="M419 769l-215 -53l-21 70l207 75zM437 0h-367v675h367v-109h-237v-166h225v-106h-225v-183h237v-111z" />
    <glyph glyph-name="Ntilde" unicode="&#xd1;" horiz-adv-x="699" 
d="M527 810c-30 -53 -72 -82 -125 -82c-69 0 -88 47 -128 47c-23 0 -42 -14 -58 -43l-63 44c30 53 72 82 125 82c69 0 89 -47 128 -47c24 0 41 14 58 42zM629 0h-168l-198 341c-29 51 -53 101 -73 145c4 -58 6 -164 6 -245v-241h-126v675h169l188 -322
c31 -52 58 -108 83 -159c-5 68 -7 188 -7 271v210h126v-675z" />
    <glyph glyph-name="Odieresis" unicode="&#xd6;" horiz-adv-x="703" 
d="M525 786c0 -34 -28 -61 -62 -61s-61 27 -61 61s27 62 61 62s62 -28 62 -62zM309 786c0 -34 -27 -61 -61 -61s-62 27 -62 61s28 62 62 62s61 -28 61 -62zM670 347c0 -223 -147 -358 -330 -358c-206 0 -307 131 -307 340c0 223 149 357 330 357c180 0 307 -108 307 -339z
M531 337c0 150 -64 232 -180 232c-93 0 -179 -74 -179 -226c0 -143 56 -236 177 -236c88 0 182 68 182 230z" />
    <glyph glyph-name="Udieresis" unicode="&#xdc;" horiz-adv-x="681" 
d="M504 786c0 -34 -28 -61 -62 -61s-61 27 -61 61s27 62 61 62s62 -28 62 -62zM288 786c0 -34 -27 -61 -61 -61s-62 27 -62 61s28 62 62 62s61 -28 61 -62zM611 262c0 -184 -102 -273 -280 -273c-213 0 -261 116 -261 245v441h130v-433c0 -85 28 -145 140 -145
c100 0 142 42 142 157v421h129v-413z" />
    <glyph glyph-name="aacute" unicode="&#xe1;" horiz-adv-x="524" 
d="M456 0h-121c0 29 1 58 5 84l-1 1c-24 -56 -85 -95 -159 -95c-90 0 -142 61 -142 142c0 118 114 174 287 174v25c0 52 -25 79 -97 79c-45 0 -100 -15 -140 -35l-23 101c50 19 120 32 185 32c158 0 203 -65 203 -168v-212c0 -40 1 -87 3 -128zM325 208v15
c-130 0 -165 -34 -165 -77c0 -33 22 -58 59 -58c63 0 106 60 106 120zM404 668l-181 -108l-47 69l169 125z" />
    <glyph glyph-name="agrave" unicode="&#xe0;" horiz-adv-x="524" 
d="M456 0h-121c0 29 1 58 5 84l-1 1c-24 -56 -85 -95 -159 -95c-90 0 -142 61 -142 142c0 118 114 174 287 174v25c0 52 -25 79 -97 79c-45 0 -100 -15 -140 -35l-23 101c50 19 120 32 185 32c158 0 203 -65 203 -168v-212c0 -40 1 -87 3 -128zM325 208v15
c-130 0 -165 -34 -165 -77c0 -33 22 -58 59 -58c63 0 106 60 106 120zM352 629l-48 -69l-181 108l59 86z" />
    <glyph glyph-name="acircumflex" unicode="&#xe2;" horiz-adv-x="524" 
d="M456 0h-121c0 29 1 58 5 84l-1 1c-24 -56 -85 -95 -159 -95c-90 0 -142 61 -142 142c0 118 114 174 287 174v25c0 52 -25 79 -97 79c-45 0 -100 -15 -140 -35l-23 101c50 19 120 32 185 32c158 0 203 -65 203 -168v-212c0 -40 1 -87 3 -128zM325 208v15
c-130 0 -165 -34 -165 -77c0 -33 22 -58 59 -58c63 0 106 60 106 120zM414 619l-50 -59l-104 81l-103 -81l-49 58l153 136z" />
    <glyph glyph-name="adieresis" unicode="&#xe4;" horiz-adv-x="524" 
d="M456 0h-121c0 29 1 58 5 84l-1 1c-24 -56 -85 -95 -159 -95c-90 0 -142 61 -142 142c0 118 114 174 287 174v25c0 52 -25 79 -97 79c-45 0 -100 -15 -140 -35l-23 101c50 19 120 32 185 32c158 0 203 -65 203 -168v-212c0 -40 1 -87 3 -128zM325 208v15
c-130 0 -165 -34 -165 -77c0 -33 22 -58 59 -58c63 0 106 60 106 120zM430 648c0 -38 -31 -69 -69 -69s-69 31 -69 69c0 39 31 69 69 69s69 -30 69 -69zM228 648c0 -38 -31 -69 -69 -69s-69 31 -69 69c0 39 31 69 69 69s69 -30 69 -69z" />
    <glyph glyph-name="atilde" unicode="&#xe3;" horiz-adv-x="524" 
d="M456 0h-121c0 29 1 58 5 84l-1 1c-24 -56 -85 -95 -159 -95c-90 0 -142 61 -142 142c0 118 114 174 287 174v25c0 52 -25 79 -97 79c-45 0 -100 -15 -140 -35l-23 101c50 19 120 32 185 32c158 0 203 -65 203 -168v-212c0 -40 1 -87 3 -128zM325 208v15
c-130 0 -165 -34 -165 -77c0 -33 22 -58 59 -58c63 0 106 60 106 120zM431 669c-29 -58 -70 -89 -122 -89c-66 0 -85 50 -123 50c-22 0 -39 -15 -55 -45l-61 47c29 58 70 89 122 89c66 0 84 -50 122 -50c23 0 40 15 56 45z" />
    <glyph glyph-name="aring" unicode="&#xe5;" horiz-adv-x="524" 
d="M456 0h-121c0 29 1 58 5 84l-1 1c-24 -56 -85 -95 -159 -95c-90 0 -142 61 -142 142c0 118 114 174 287 174v25c0 52 -25 79 -97 79c-45 0 -100 -15 -140 -35l-23 101c50 19 120 32 185 32c158 0 203 -65 203 -168v-212c0 -40 1 -87 3 -128zM325 208v15
c-130 0 -165 -34 -165 -77c0 -33 22 -58 59 -58c63 0 106 60 106 120zM387 667c0 -69 -57 -122 -127 -122c-71 0 -127 51 -127 122c0 70 57 121 127 121c71 0 127 -51 127 -121zM312 667c0 29 -23 53 -52 53s-53 -24 -53 -53s24 -53 53 -53s52 24 52 53z" />
    <glyph glyph-name="ccedilla" unicode="&#xe7;" horiz-adv-x="425" 
d="M398 14c-39 -15 -91 -23 -140 -23c-138 0 -224 72 -224 241c0 155 81 274 253 274c38 0 77 -6 109 -17l-20 -110c-27 11 -60 19 -93 19c-76 0 -115 -61 -115 -153c0 -85 31 -144 116 -144c34 0 68 7 97 20zM273 -40c52 -71 36 -136 -20 -194h-96c48 58 58 101 10 161z
" />
    <glyph glyph-name="eacute" unicode="&#xe9;" horiz-adv-x="514" 
d="M476 286c0 -17 -1 -37 -4 -59h-308c-1 -92 45 -137 137 -137c47 0 97 10 144 30l14 -97c-54 -22 -119 -33 -180 -33c-157 0 -245 79 -245 254c0 152 84 264 233 264c145 0 209 -99 209 -222zM349 313c2 64 -32 101 -86 101c-53 0 -90 -39 -97 -101h183zM410 668
l-181 -108l-47 69l169 125z" />
    <glyph glyph-name="egrave" unicode="&#xe8;" horiz-adv-x="514" 
d="M476 286c0 -17 -1 -37 -4 -59h-308c-1 -92 45 -137 137 -137c47 0 97 10 144 30l14 -97c-54 -22 -119 -33 -180 -33c-157 0 -245 79 -245 254c0 152 84 264 233 264c145 0 209 -99 209 -222zM349 313c2 64 -32 101 -86 101c-53 0 -90 -39 -97 -101h183zM359 629l-48 -69
l-181 108l59 86z" />
    <glyph glyph-name="ecircumflex" unicode="&#xea;" horiz-adv-x="514" 
d="M476 286c0 -17 -1 -37 -4 -59h-308c-1 -92 45 -137 137 -137c47 0 97 10 144 30l14 -97c-54 -22 -119 -33 -180 -33c-157 0 -245 79 -245 254c0 152 84 264 233 264c145 0 209 -99 209 -222zM349 313c2 64 -32 101 -86 101c-53 0 -90 -39 -97 -101h183zM415 619l-50 -59
l-104 81l-103 -81l-49 58l153 136z" />
    <glyph glyph-name="edieresis" unicode="&#xeb;" horiz-adv-x="514" 
d="M476 286c0 -17 -1 -37 -4 -59h-308c-1 -92 45 -137 137 -137c47 0 97 10 144 30l14 -97c-54 -22 -119 -33 -180 -33c-157 0 -245 79 -245 254c0 152 84 264 233 264c145 0 209 -99 209 -222zM349 313c2 64 -32 101 -86 101c-53 0 -90 -39 -97 -101h183zM437 648
c0 -38 -31 -69 -69 -69s-69 31 -69 69c0 39 31 69 69 69s69 -30 69 -69zM235 648c0 -38 -31 -69 -69 -69s-69 31 -69 69c0 39 31 69 69 69s69 -30 69 -69z" />
    <glyph glyph-name="iacute" unicode="&#xed;" horiz-adv-x="266" 
d="M197 0h-128v497h128v-497zM248 668l-181 -108l-47 69l169 125z" />
    <glyph glyph-name="igrave" unicode="&#xec;" horiz-adv-x="266" 
d="M197 0h-128v497h128v-497zM246 629l-48 -69l-181 108l59 86z" />
    <glyph glyph-name="icircumflex" unicode="&#xee;" horiz-adv-x="266" 
d="M197 0h-128v497h128v-497zM285 619l-50 -59l-104 81l-103 -81l-49 58l153 136z" />
    <glyph glyph-name="idieresis" unicode="&#xef;" horiz-adv-x="266" 
d="M197 0h-128v497h128v-497zM304 648c0 -38 -31 -69 -69 -69s-69 31 -69 69c0 39 31 69 69 69s69 -30 69 -69zM102 648c0 -38 -31 -69 -69 -69s-69 31 -69 69c0 39 31 69 69 69s69 -30 69 -69z" />
    <glyph glyph-name="ntilde" unicode="&#xf1;" horiz-adv-x="571" 
d="M501 0h-127v318c0 51 -14 82 -61 82c-65 0 -116 -73 -116 -160v-240h-128v497h121c0 -23 -2 -63 -7 -89h1c30 58 88 99 169 99c112 0 148 -71 148 -158v-349zM469 669c-29 -58 -70 -89 -122 -89c-66 0 -85 50 -123 50c-22 0 -39 -15 -55 -45l-61 47c29 58 70 89 122 89
c66 0 84 -50 122 -50c23 0 40 15 56 45z" />
    <glyph glyph-name="oacute" unicode="&#xf3;" horiz-adv-x="553" 
d="M519 258c0 -156 -105 -268 -254 -268c-141 0 -232 73 -232 250c0 155 103 267 254 267c141 0 232 -78 232 -249zM387 251c0 96 -34 148 -109 148c-57 0 -113 -44 -113 -146s37 -154 111 -154c63 0 111 51 111 152zM424 668l-181 -108l-47 69l169 125z" />
    <glyph glyph-name="ograve" unicode="&#xf2;" horiz-adv-x="553" 
d="M519 258c0 -156 -105 -268 -254 -268c-141 0 -232 73 -232 250c0 155 103 267 254 267c141 0 232 -78 232 -249zM387 251c0 96 -34 148 -109 148c-57 0 -113 -44 -113 -146s37 -154 111 -154c63 0 111 51 111 152zM374 629l-48 -69l-181 108l59 86z" />
    <glyph glyph-name="ocircumflex" unicode="&#xf4;" horiz-adv-x="553" 
d="M519 258c0 -156 -105 -268 -254 -268c-141 0 -232 73 -232 250c0 155 103 267 254 267c141 0 232 -78 232 -249zM387 251c0 96 -34 148 -109 148c-57 0 -113 -44 -113 -146s37 -154 111 -154c63 0 111 51 111 152zM433 619l-50 -59l-104 81l-103 -81l-49 58l153 136z" />
    <glyph glyph-name="odieresis" unicode="&#xf6;" horiz-adv-x="553" 
d="M519 258c0 -156 -105 -268 -254 -268c-141 0 -232 73 -232 250c0 155 103 267 254 267c141 0 232 -78 232 -249zM387 251c0 96 -34 148 -109 148c-57 0 -113 -44 -113 -146s37 -154 111 -154c63 0 111 51 111 152zM451 648c0 -38 -31 -69 -69 -69s-69 31 -69 69
c0 39 31 69 69 69s69 -30 69 -69zM249 648c0 -38 -31 -69 -69 -69s-69 31 -69 69c0 39 31 69 69 69s69 -30 69 -69z" />
    <glyph glyph-name="otilde" unicode="&#xf5;" horiz-adv-x="553" 
d="M519 258c0 -156 -105 -268 -254 -268c-141 0 -232 73 -232 250c0 155 103 267 254 267c141 0 232 -78 232 -249zM387 251c0 96 -34 148 -109 148c-57 0 -113 -44 -113 -146s37 -154 111 -154c63 0 111 51 111 152zM456 669c-29 -58 -70 -89 -122 -89
c-66 0 -85 50 -123 50c-22 0 -39 -15 -55 -45l-61 47c29 58 70 89 122 89c66 0 84 -50 122 -50c23 0 40 15 56 45z" />
    <glyph glyph-name="uacute" unicode="&#xfa;" horiz-adv-x="570" 
d="M501 0h-120c0 23 1 63 6 89h-1c-30 -58 -87 -99 -169 -99c-112 0 -148 71 -148 158v349h127v-318c0 -51 14 -82 62 -82c65 0 115 73 115 160v240h128v-497zM441 668l-181 -108l-47 69l169 125z" />
    <glyph glyph-name="ugrave" unicode="&#xf9;" horiz-adv-x="570" 
d="M501 0h-120c0 23 1 63 6 89h-1c-30 -58 -87 -99 -169 -99c-112 0 -148 71 -148 158v349h127v-318c0 -51 14 -82 62 -82c65 0 115 73 115 160v240h128v-497zM368 629l-48 -69l-181 108l59 86z" />
    <glyph glyph-name="ucircumflex" unicode="&#xfb;" horiz-adv-x="570" 
d="M501 0h-120c0 23 1 63 6 89h-1c-30 -58 -87 -99 -169 -99c-112 0 -148 71 -148 158v349h127v-318c0 -51 14 -82 62 -82c65 0 115 73 115 160v240h128v-497zM435 619l-50 -59l-104 81l-103 -81l-49 58l153 136z" />
    <glyph glyph-name="udieresis" unicode="&#xfc;" horiz-adv-x="570" 
d="M501 0h-120c0 23 1 63 6 89h-1c-30 -58 -87 -99 -169 -99c-112 0 -148 71 -148 158v349h127v-318c0 -51 14 -82 62 -82c65 0 115 73 115 160v240h128v-497zM449 648c0 -38 -31 -69 -69 -69s-69 31 -69 69c0 39 31 69 69 69s69 -30 69 -69zM247 648c0 -38 -31 -69 -69 -69
s-69 31 -69 69c0 39 31 69 69 69s69 -30 69 -69z" />
    <glyph glyph-name="degree" unicode="&#xb0;" horiz-adv-x="388" 
d="M340 600c0 -92 -76 -142 -154 -142c-89 0 -144 53 -144 139c0 89 77 141 151 141c104 0 147 -64 147 -138zM245 600c0 27 -16 58 -53 58c-32 0 -55 -24 -55 -60c0 -37 22 -59 54 -59c33 0 54 25 54 61z" />
    <glyph glyph-name="registered" unicode="&#xae;" horiz-adv-x="564" 
d="M516 530c0 -128 -106 -230 -234 -230c-131 0 -234 101 -234 230s105 231 234 231c130 0 234 -100 234 -231zM438 530c0 86 -70 158 -156 158c-87 0 -157 -70 -157 -157c0 -86 70 -158 157 -158c86 0 156 70 156 157zM377 420h-72l-38 85h-7v-85h-60v223h93
c55 0 79 -25 79 -62c0 -35 -18 -55 -45 -63c5 -6 11 -15 17 -27zM306 573c0 16 -9 24 -30 24h-16v-51h11c24 0 35 12 35 27z" />
    <glyph glyph-name="copyright" unicode="&#xa9;" horiz-adv-x="762" 
d="M722 334c0 -189 -153 -342 -342 -342c-192 0 -342 152 -342 341s153 342 342 342s342 -152 342 -341zM625 333c0 136 -109 247 -245 247s-246 -110 -246 -246s110 -247 246 -247s245 110 245 246zM480 177c-30 -14 -64 -20 -102 -20c-102 0 -161 68 -161 173
c0 97 53 182 176 182c33 0 60 -6 82 -15l-14 -85c-15 10 -39 17 -63 17c-53 0 -75 -38 -75 -97c0 -57 24 -87 70 -87c25 0 49 4 70 14z" />
    <glyph glyph-name="trademark" unicode="&#x2122;" horiz-adv-x="689" 
d="M654 394h-95l-18 121l-5 47l-9 -43l-33 -125h-85l-33 128l-8 40l-2 -36l-19 -132h-86l45 281h109l34 -123l8 -41l7 39l34 125h109zM253 598h-65v-204h-91v204h-68v77h224v-77z" />
    <glyph glyph-name="notequal" unicode="&#x2260;" 
d="M504 150h-230l-48 -121h-114l48 121h-114v103h154l35 88h-189v103h229l48 121h115l-48 -121h114v-103h-155l-35 -88h190v-103z" />
    <glyph glyph-name="infinity" unicode="&#x221e;" horiz-adv-x="984" 
d="M940 304c0 -103 -73 -189 -206 -189c-75 0 -154 39 -246 107c-73 -54 -158 -107 -251 -107c-129 0 -193 81 -193 179c0 109 81 189 201 189c81 0 161 -42 250 -109c70 52 159 109 249 109c125 0 196 -77 196 -179zM818 300c0 41 -29 72 -78 72c-43 0 -93 -30 -149 -71
c63 -47 109 -75 149 -75c51 0 78 34 78 74zM392 296c-62 47 -108 76 -148 76c-51 0 -77 -34 -77 -73c0 -42 29 -73 78 -73c41 0 90 28 147 70z" />
    <glyph glyph-name="plusminus" unicode="&#xb1;" 
d="M511 346h-175v-183h-122v183h-175v106h175v182h122v-182h175v-106zM507 0h-464v107h464v-107z" />
    <glyph glyph-name="lessequal" unicode="&#x2264;" 
d="M468 234l-80 -89l-333 257l332 257l81 -87l-242 -169zM479 0h-408v107h408v-107z" />
    <glyph glyph-name="greaterequal" unicode="&#x2265;" 
d="M495 402l-332 -257l-81 87l242 169l-242 169l80 89zM479 0h-408v107h408v-107z" />
    <glyph glyph-name="mu" unicode="&#xb5;" horiz-adv-x="634" 
d="M621 62c-25 -41 -66 -72 -132 -72c-73 0 -91 49 -90 94h-1c-23 -54 -73 -91 -139 -91c-28 0 -51 7 -68 20l19 -254h-134v738h127v-314c0 -54 16 -86 66 -86c63 0 111 66 111 152v248h128v-335c0 -62 7 -74 27 -74c16 0 30 14 40 30z" />
    <glyph glyph-name="partialdiff" unicode="&#x2202;" horiz-adv-x="634" 
d="M572 399c0 -123 -30 -241 -103 -321c-47 -52 -119 -85 -196 -85c-138 0 -211 84 -211 211c0 141 98 246 248 246c59 0 105 -25 130 -64c-3 29 -4 48 -7 66c-15 117 -97 179 -203 178l18 107c195 -2 324 -130 324 -338zM414 238c0 60 -36 104 -109 104
c-69 0 -117 -54 -117 -127s40 -112 103 -112c69 0 123 57 123 135z" />
    <glyph glyph-name="summation" unicode="&#x2211;" horiz-adv-x="607" 
d="M558 -241h-522v99l291 396l-273 376v100h489v-108h-332l264 -364l-288 -387h371v-112z" />
    <glyph glyph-name="product" unicode="&#x220f;" horiz-adv-x="784" 
d="M742 622h-96v-863h-119v863h-268v-863h-121v863h-97v108h701v-108z" />
    <glyph glyph-name="pi" unicode="&#x3c0;" horiz-adv-x="669" 
d="M625 0c-29 -6 -67 -11 -107 -11c-88 0 -118 44 -118 133v271h-144v-393h-119v393h-98v104h577v-104h-97v-199c0 -99 10 -112 50 -112c18 0 35 3 48 7z" />
    <glyph glyph-name="integral" unicode="&#x222b;" horiz-adv-x="345" 
d="M322 621c-12 4 -30 7 -46 7c-41 0 -59 -21 -59 -129c0 -159 13 -286 13 -483c0 -191 -54 -267 -167 -267c-18 0 -39 2 -56 6v111c13 -4 30 -7 43 -7c43 0 62 22 62 131c0 155 -13 281 -13 481c0 195 63 267 171 267c15 0 36 -3 52 -7v-110z" />
    <glyph glyph-name="Omega" unicode="&#x3a9;" horiz-adv-x="749" 
d="M686 0h-257v91c77 49 125 136 125 259c0 131 -63 233 -179 233c-112 0 -186 -95 -186 -230c0 -125 39 -203 128 -261v-92h-258v96h128c-79 54 -123 144 -123 256c0 191 125 334 318 334c175 0 301 -115 301 -324c0 -114 -51 -214 -129 -266h132v-96z" />
    <glyph glyph-name="logicalnot" unicode="&#xac;" 
d="M489 95h-113v149h-337v107h450v-256z" />
    <glyph glyph-name="radical" unicode="&#x221a;" horiz-adv-x="616" 
d="M605 758l-232 -758h-148l-135 401h-87v96h192l80 -258c10 -31 20 -64 27 -97h1c7 34 14 64 21 92l141 524h140z" />
    <glyph glyph-name="approxequal" unicode="&#x2248;" 
d="M512 375c-36 -36 -83 -64 -140 -64c-85 0 -117 58 -194 58c-37 0 -72 -19 -100 -42l-40 85c37 34 90 64 144 64c89 0 130 -59 192 -59c34 0 67 18 95 44zM513 174c-37 -33 -92 -60 -141 -60c-92 0 -124 58 -194 58c-37 0 -70 -20 -98 -43l-42 86c32 30 82 64 137 64
c92 0 121 -59 201 -59c33 0 65 12 96 39z" />
    <glyph glyph-name="Delta" unicode="&#x394;" horiz-adv-x="752" 
d="M726 0h-700l286 700h127zM537 117l-167 419l-165 -419h332z" />
    <glyph glyph-name="nbspace" unicode="&#xa0;" horiz-adv-x="218" 
 />
    <glyph glyph-name="Agrave" unicode="&#xc0;" horiz-adv-x="626" 
d="M372 786l-21 -70l-215 53l29 92zM625 0h-144l-47 138h-255l-47 -138h-131l236 675h147zM401 241l-67 192c-12 33 -21 64 -28 93h-1c-8 -29 -16 -60 -27 -93l-67 -192h190z" />
    <glyph glyph-name="Atilde" unicode="&#xc3;" horiz-adv-x="626" 
d="M491 810c-30 -53 -72 -82 -125 -82c-69 0 -89 47 -128 47c-24 0 -42 -14 -58 -43l-63 44c30 53 72 82 125 82c69 0 88 -47 128 -47c24 0 41 14 58 42zM625 0h-144l-47 138h-255l-47 -138h-131l236 675h147zM401 241l-67 192c-12 33 -21 64 -28 93h-1
c-8 -29 -16 -60 -27 -93l-67 -192h190z" />
    <glyph glyph-name="Otilde" unicode="&#xd5;" horiz-adv-x="703" 
d="M535 810c-30 -53 -72 -82 -126 -82c-68 0 -88 47 -127 47c-24 0 -42 -14 -58 -43l-64 44c30 53 73 82 126 82c69 0 88 -47 128 -47c23 0 41 14 58 42zM670 347c0 -223 -147 -358 -330 -358c-206 0 -307 131 -307 340c0 223 149 357 330 357c180 0 307 -108 307 -339z
M531 337c0 150 -64 232 -180 232c-93 0 -179 -74 -179 -226c0 -143 56 -236 177 -236c88 0 182 68 182 230z" />
    <glyph glyph-name="divide" unicode="&#xf7;" 
d="M352 498c0 -43 -35 -78 -78 -78s-78 35 -78 78s35 78 78 78s78 -35 78 -78zM511 244h-472v107h472v-107zM352 97c0 -43 -35 -78 -78 -78s-78 35 -78 78s35 78 78 78s78 -35 78 -78z" />
    <glyph glyph-name="lozenge" unicode="&#x25ca;" horiz-adv-x="626" 
d="M604 336l-249 -345h-80l-253 348l251 345h78zM464 331l-156 214l-145 -203l154 -213z" />
    <glyph glyph-name="ydieresis" unicode="&#xff;" horiz-adv-x="502" 
d="M499 497l-197 -525c-65 -172 -135 -221 -250 -221c-21 0 -51 3 -70 7l15 110c19 -6 42 -10 63 -10c42 0 86 20 114 98l15 44l-183 497h142l67 -190c15 -43 28 -92 39 -137h1c11 45 32 112 48 158l59 169h137zM422 648c0 -38 -31 -69 -69 -69s-69 31 -69 69
c0 39 31 69 69 69s69 -30 69 -69zM220 648c0 -38 -31 -69 -69 -69s-69 31 -69 69c0 39 31 69 69 69s69 -30 69 -69z" />
    <glyph glyph-name="Ydieresis" unicode="&#x178;" horiz-adv-x="561" 
d="M446 786c0 -34 -28 -61 -62 -61s-61 27 -61 61s27 62 61 62s62 -28 62 -62zM230 786c0 -34 -27 -61 -61 -61s-62 27 -62 61s28 62 62 62s61 -28 61 -62zM559 675l-215 -436v-239h-130v238l-211 437h142l89 -194c18 -40 33 -77 46 -112h2c14 39 34 82 54 125l85 181h138z
" />
    <glyph glyph-name="Euro" unicode="&#x20ac;" 
d="M521 21c-49 -21 -111 -32 -168 -32c-144 0 -235 63 -261 221h-81v79h74c-1 9 -1 17 -1 27c0 16 1 31 1 47h-74v79h87c29 127 113 219 278 219c47 0 100 -10 139 -25l-30 -101c-32 15 -76 25 -119 25c-77 0 -118 -49 -136 -118h165v-79h-180v-37v-37h180v-79h-168
c18 -82 63 -118 146 -118c40 0 81 10 119 26z" />
    <glyph glyph-name="Acircumflex" unicode="&#xc2;" horiz-adv-x="626" 
d="M474 779l-30 -64l-137 60l-135 -60l-29 62l165 87zM625 0h-144l-47 138h-255l-47 -138h-131l236 675h147zM401 241l-67 192c-12 33 -21 64 -28 93h-1c-8 -29 -16 -60 -27 -93l-67 -192h190z" />
    <glyph glyph-name="Ecircumflex" unicode="&#xca;" horiz-adv-x="493" 
d="M416 779l-31 -64l-136 60l-135 -60l-29 62l165 87zM437 0h-367v675h367v-109h-237v-166h225v-106h-225v-183h237v-111z" />
    <glyph glyph-name="Aacute" unicode="&#xc1;" horiz-adv-x="626" 
d="M462 769l-215 -53l-21 70l207 75zM625 0h-144l-47 138h-255l-47 -138h-131l236 675h147zM401 241l-67 192c-12 33 -21 64 -28 93h-1c-8 -29 -16 -60 -27 -93l-67 -192h190z" />
    <glyph glyph-name="Edieresis" unicode="&#xcb;" horiz-adv-x="493" 
d="M418 786c0 -34 -27 -61 -61 -61s-62 27 -62 61s28 62 62 62s61 -28 61 -62zM203 786c0 -34 -28 -61 -62 -61s-61 27 -61 61s27 62 61 62s62 -28 62 -62zM437 0h-367v675h367v-109h-237v-166h225v-106h-225v-183h237v-111z" />
    <glyph glyph-name="Egrave" unicode="&#xc8;" horiz-adv-x="493" 
d="M330 786l-21 -70l-216 53l29 92zM437 0h-367v675h367v-109h-237v-166h225v-106h-225v-183h237v-111z" />
    <glyph glyph-name="Iacute" unicode="&#xcd;" horiz-adv-x="270" 
d="M281 769l-216 -53l-21 70l207 75zM200 0h-130v675h130v-675z" />
    <glyph glyph-name="Icircumflex" unicode="&#xce;" horiz-adv-x="270" 
d="M301 779l-30 -64l-137 60l-135 -60l-29 62l165 87zM200 0h-130v675h130v-675z" />
    <glyph glyph-name="Idieresis" unicode="&#xcf;" horiz-adv-x="270" 
d="M303 786c0 -34 -28 -61 -62 -61s-61 27 -61 61s27 62 61 62s62 -28 62 -62zM87 786c0 -34 -27 -61 -61 -61s-62 27 -62 61s28 62 62 62s61 -28 61 -62zM200 0h-130v675h130v-675z" />
    <glyph glyph-name="Igrave" unicode="&#xcc;" horiz-adv-x="270" 
d="M222 786l-21 -70l-216 53l30 92zM200 0h-130v675h130v-675z" />
    <glyph glyph-name="Oacute" unicode="&#xd3;" horiz-adv-x="703" 
d="M514 769l-216 -53l-21 70l207 75zM670 347c0 -223 -147 -358 -330 -358c-206 0 -307 131 -307 340c0 223 149 357 330 357c180 0 307 -108 307 -339zM531 337c0 150 -64 232 -180 232c-93 0 -179 -74 -179 -226c0 -143 56 -236 177 -236c88 0 182 68 182 230z" />
    <glyph glyph-name="Ocircumflex" unicode="&#xd4;" horiz-adv-x="703" 
d="M530 779l-31 -64l-137 60l-135 -60l-29 62l165 87zM670 347c0 -223 -147 -358 -330 -358c-206 0 -307 131 -307 340c0 223 149 357 330 357c180 0 307 -108 307 -339zM531 337c0 150 -64 232 -180 232c-93 0 -179 -74 -179 -226c0 -143 56 -236 177 -236
c88 0 182 68 182 230z" />
    <glyph glyph-name="apple" unicode="&#xf8ff;" horiz-adv-x="1044" 
d="M136 660c20 23 40 44 62 62l96 -115c-14 -11 -31 -28 -42 -42zM552 685c-19 3 -40 2 -59 0l-15 145c29 3 60 2 88 0zM752 608l93 113c23 -19 44 -39 62 -62l-113 -93c-11 14 -29 32 -42 42zM1028 379c3 -30 3 -58 1 -87l-148 14c2 18 2 41 0 60zM779 335
c0 -67 -27 -130 -66 -171v-80l-16 -5l32 -76l-32 -8l32 -73l-33 -9l10 -24l-31 -71h-57c-4 -27 -45 -48 -96 -48c-52 0 -92 21 -96 48h-57l-54 130l31 9l-32 75l35 10l-19 44v79c-39 44 -65 105 -65 170c0 143 115 257 257 257c141 0 257 -114 257 -257zM399 192h50l-16 129
c-18 -4 -29 -9 -38 -12c-21 -7 -23 57 -8 62c40 11 89 20 135 20c49 0 96 -9 137 -20c13 -4 12 -69 -10 -62c-9 4 -22 8 -40 12l-13 -129h49c37 32 66 83 66 143c0 105 -85 190 -189 190s-189 -85 -189 -190c0 -56 25 -108 66 -143zM561 329c-15 3 -27 3 -39 3
c-11 0 -24 0 -40 -3l15 -137h51zM644 138h-244v-47l14 -34l230 59v22zM645 32l-13 32l-234 -60l13 -31zM645 -51l-13 31l-234 -61l23 -55h202l11 27l-4 10l-70 -18l-15 41zM510 357v1h-2v6h-1v-7h3zM514 362h-1v-3c0 -2 -1 -1 -1 0v3h-1v-3c0 -3 3 -2 3 0v3zM518 357v1
c-2 -1 -2 4 0 3v1c-3 1 -4 -6 0 -5zM522 355c-2 3 -2 7 0 10c-3 0 -3 -10 0 -10zM525 358v-1h1v3c0 2 -2 3 -4 1c1 0 2 1 3 -1c-3 0 -5 -5 0 -2zM525 359c-2 1 -3 -3 0 0zM528 357c6 0 -1 4 2 4v1c-6 0 2 -4 -2 -4v-1zM531 355c3 0 3 10 0 10c2 -3 2 -7 0 -10zM16 380
l150 -14c-2 -19 -2 -42 0 -60l-150 -15c-4 29 -4 60 0 89z" />
    <glyph glyph-name="Ograve" unicode="&#xd2;" horiz-adv-x="703" 
d="M437 786l-21 -70l-215 53l29 92zM670 347c0 -223 -147 -358 -330 -358c-206 0 -307 131 -307 340c0 223 149 357 330 357c180 0 307 -108 307 -339zM531 337c0 150 -64 232 -180 232c-93 0 -179 -74 -179 -226c0 -143 56 -236 177 -236c88 0 182 68 182 230z" />
    <glyph glyph-name="Uacute" unicode="&#xda;" horiz-adv-x="681" 
d="M505 769l-215 -53l-21 70l207 75zM611 262c0 -184 -102 -273 -280 -273c-213 0 -261 116 -261 245v441h130v-433c0 -85 28 -145 140 -145c100 0 142 42 142 157v421h129v-413z" />
    <glyph glyph-name="Ucircumflex" unicode="&#xdb;" horiz-adv-x="681" 
d="M507 779l-31 -64l-136 60l-135 -60l-29 62l165 87zM611 262c0 -184 -102 -273 -280 -273c-213 0 -261 116 -261 245v441h130v-433c0 -85 28 -145 140 -145c100 0 142 42 142 157v421h129v-413z" />
    <glyph glyph-name="Ugrave" unicode="&#xd9;" horiz-adv-x="681" 
d="M413 786l-21 -70l-216 53l30 92zM611 262c0 -184 -102 -273 -280 -273c-213 0 -261 116 -261 245v441h130v-433c0 -85 28 -145 140 -145c100 0 142 42 142 157v421h129v-413z" />
    <glyph glyph-name="Eth" unicode="&#xd0;" horiz-adv-x="675" 
d="M637 348c0 -231 -150 -352 -372 -352c-69 0 -129 3 -186 5v293h-77v98h77v282c53 2 134 5 218 5c208 0 340 -94 340 -331zM498 339c0 144 -57 231 -211 231c-30 0 -58 -1 -79 -3v-175h120v-98h-120v-183c8 -1 45 -4 71 -4c127 0 219 72 219 232z" />
    <glyph glyph-name="Grave" unicode="&#xf6ce;" horiz-adv-x="374" 
d="M305 786l-21 -70l-216 53l30 92z" />
    <glyph glyph-name="Acute" unicode="&#xf6c9;" horiz-adv-x="393" 
d="M312 769l-215 -53l-21 70l207 75z" />
    <glyph glyph-name="Dieresis" unicode="&#xf6cb;" horiz-adv-x="546" 
d="M431 786c0 -34 -28 -61 -62 -61s-61 27 -61 61s27 62 61 62s62 -28 62 -62zM215 786c0 -34 -27 -61 -61 -61s-62 27 -62 61s28 62 62 62s61 -28 61 -62z" />
    <glyph glyph-name="Circumflex" horiz-adv-x="426" 
d="M376 779l-30 -64l-137 60l-135 -60l-29 62l165 87z" />
    <glyph glyph-name="Tilde" horiz-adv-x="467" 
d="M428 810c-30 -53 -72 -82 -125 -82c-69 0 -89 47 -128 47c-24 0 -42 -14 -58 -43l-63 44c30 53 72 82 125 82c69 0 88 -47 128 -47c24 0 41 14 58 42z" />
    <glyph glyph-name="Caron" unicode="&#xf6ca;" horiz-adv-x="426" 
d="M375 802l-165 -87l-166 86l30 63l137 -59l135 59z" />
    <glyph glyph-name="uni20AC" 
d="M521 21c-49 -21 -111 -32 -168 -32c-144 0 -235 63 -261 221h-81v79h74c-1 9 -1 17 -1 27c0 16 1 31 1 47h-74v79h87c29 127 113 219 278 219c47 0 100 -10 139 -25l-30 -101c-32 15 -76 25 -119 25c-77 0 -118 -49 -136 -118h165v-79h-180v-37v-37h180v-79h-168
c18 -82 63 -118 146 -118c40 0 81 10 119 26z" />
    </font>
</defs>
</svg>
